<?xml version="1.0" standalone="no"?>
<!DOCTYPE svg PUBLIC "-//W3C//DTD SVG 1.1//EN" "http://www.w3.org/Graphics/SVG/1.1/DTD/svg11.dtd" >
<svg xmlns="http://www.w3.org/2000/svg" xmlns:xlink="http://www.w3.org/1999/xlink" version="1.1">
<metadata>
Created by FontForge 20201107 at Thu Nov 26 04:00:43 2009
 By 
Copyright (c) 2008 by Prinya R. nont. All rights reserved.
</metadata>
<defs>
<font id="DBMomentX" horiz-adv-x="0" >
  <font-face 
    font-family="DB Moment X"
    font-weight="400"
    font-stretch="normal"
    units-per-em="4096"
    panose-1="2 0 5 6 6 0 0 2 0 4"
    ascent="3276"
    descent="-820"
    x-height="1466"
    cap-height="2032"
    bbox="-1991 -1357 3609 3153"
    underline-thickness="82"
    underline-position="-545"
    unicode-range="U+0020-F882"
  />
<missing-glyph horiz-adv-x="1323" 
d="M1348 1278v-45h20q21 0 21 29q0 4 -4.5 10t-16.5 6h-20zM1356 1229h-8v-45h-17v110h37q37 0 37 -32q0 -21 -8 -27t-25 -6l33 -45h-16zM1368 1167q41 0 55.5 22.5t14.5 43.5q0 37 -18.5 57.5t-51.5 20.5q-37 0 -55.5 -20.5t-18.5 -57.5q0 -25 16.5 -45.5t57.5 -20.5z
M1368 1319q41 0 59.5 -24.5t18.5 -61.5q0 -25 -18.5 -49.5t-59.5 -24.5t-61.5 24.5t-20.5 49.5q0 37 20.5 61.5t61.5 24.5zM643 1008q49 0 118.5 -10.5t137.5 -22.5t125 -30.5t86 -39.5q-61 127 -196.5 194.5t-274.5 67.5q-111 0 -209 -41t-160 -127q58 9 115 11t115 2h69
t74 -4zM1196 1262v-455q-152 49 -350.5 82t-415.5 33q-151 0 -299 -17q21 70 61.5 135.5t104 114.5t147.5 78t187 29q102 0 182 -22.5t139.5 -53.5t100.5 -70t57 -67q0 -5 0 20v59.5v73.5v60h86zM487 406q0 24 -16 38.5t-37 14.5q-20 0 -36.5 -14.5t-16.5 -38.5
q0 -25 16.5 -37.5t36.5 -12.5q21 0 37 12.5t16 37.5zM102 442q0 74 29 131.5t76 96.5t108.5 59.5t126.5 20.5q62 0 121.5 -18.5t106.5 -53.5t73.5 -90.5t26.5 -128.5v-373h340v647h86v-729h-602v82h94v381q0 94 -71.5 143t-174.5 49q-94 0 -169.5 -53t-75.5 -147v-344
l184 184q-16 8 -43 32.5t-27 74.5q0 57 37 89.5t94 32.5q54 0 86.5 -34.5t32.5 -87.5q0 -46 -16.5 -70.5t-28.5 -36.5q-8 -4 -55 -51t-105 -101q-69 -65 -151 -143h-103v438z" />
    <glyph glyph-name="plusminus" unicode="&#x2b;&#x2d;" horiz-adv-x="1343" 
d="M1204 315v-209h-1081v209h1081zM119 1077h442v389h209v-389h442v-213h-442v-409h-209v409h-442v213z" />
    <glyph glyph-name="ellipsis" unicode="&#x2e;&#x2e;&#x2e;" horiz-adv-x="2032" 
d="M135 168q0 40 15 75t41.5 61t61.5 41t75 15q43 0 79.5 -15t63.5 -41t42 -61t15 -75q0 -43 -15 -80.5t-41 -65t-61 -43.5t-75 -16q-43 0 -80 16t-64 43.5t-42 65t-15 80.5zM811 168q0 40 15.5 75t42.5 61t63 41t76 15q41 0 77.5 -15t63.5 -41t43 -61t16 -75
q0 -43 -15.5 -80.5t-42.5 -65t-62.5 -43.5t-75.5 -16t-76.5 16t-64 43.5t-44 65t-16.5 80.5zM1495 168q0 40 14.5 75t40.5 61t61 41t77 15q41 0 77.5 -15t63.5 -41t43 -61t16 -75q0 -43 -15.5 -80.5t-42 -65t-61.5 -43.5t-73 -16q-43 0 -80 16t-64 43.5t-42 65t-15 80.5z
" />
    <glyph glyph-name="lessequal" unicode="&#x3c;&#x3d;" horiz-adv-x="1356" 
d="M1204 1466v-217l-811 -368l811 -299v-213l-1081 405v184zM1204 229v-209l-1081 414v213z" />
    <glyph glyph-name="greaterequal" unicode="&#x3e;&#x3d;" horiz-adv-x="1356" 
d="M1204 958v-184l-1081 -405v213l815 299l-815 368v217zM1204 647v-213l-1081 -414v209z" />
    <glyph glyph-name="fongmanfunnuthai" unicode="&#xe4f;&#x22;" horiz-adv-x="1660" 
d="M952 2248l228 48v-682h-228v634zM485 2248l229 48v-682h-229v634zM127 778q0 97 25.5 187.5t71.5 169t110.5 143t143 110.5t168.5 71.5t188 25.5q97 0 187.5 -25.5t169 -71.5t143 -110.5t110.5 -143t71.5 -169t25.5 -187.5t-25.5 -187.5t-71.5 -169t-110.5 -143
t-143 -110.5t-169 -71.5t-187.5 -25.5t-187.5 25.5t-169 71.5t-143 110.5t-110.5 143t-71.5 168.5t-25.5 188zM310 778q0 -108 41 -203.5t112.5 -167t167 -112.5t203.5 -41t203.5 41t167 112.5t112.5 167t41 203.5t-41 203.5t-112.5 167t-167 112.5t-203.5 41t-203.5 -41
t-167 -112.5t-112.5 -167t-41 -203.5zM472 778q0 75 28.5 141t77.5 115t115 77.5t141 28.5t141 -28.5t115 -77.5t77.5 -115t28.5 -141t-28.5 -141t-77.5 -115t-115 -77.5t-141 -28.5t-141 28.5t-115 77.5t-77.5 115t-28.5 141zM637 778q0 -41 15.5 -77t42 -62.5t62.5 -42
t77 -15.5t77 15.5t62.5 42t42 62.5t15.5 77t-15.5 77t-42 62.5t-62.5 42t-77 15.5t-77 -15.5t-62.5 -42t-42 -62.5t-15.5 -77z" />
    <glyph glyph-name="dochadaphinthuthai" unicode="&#xe0e;&#xe3a;" horiz-adv-x="1784" 
d="M1184 -758q0 40 15 74.5t40 60t57.5 40t67.5 14.5q42 0 76.5 -14.5t59 -40t38.5 -60t14 -74.5q0 -37 -14 -69.5t-38.5 -57t-59 -39t-76.5 -14.5q-35 0 -67.5 14.5t-57.5 39t-40 57t-15 69.5zM872 -274q-15 -6 -37.5 -22t-46.5 -38.5t-46.5 -49t-37.5 -54.5l-196 86
q32 52 76.5 99.5t96 85t107 63.5t109.5 35l319 -164q14 0 27 13.5t23.5 35.5t17 50t6.5 57v1097q0 86 -10.5 159.5t-47.5 127t-110 84t-197 30.5q-111 0 -222 -32.5t-216 -81.5q21 -22 44.5 -56t42.5 -74t31.5 -84t12.5 -85v-668q0 -83 -27 -147t-74.5 -108t-112.5 -66.5
t-142 -22.5q-16 0 -33 0.5t-33 3.5l-53 184q81 0 127 16.5t68.5 47.5t28 76t5.5 102v496q0 66 -7 110.5t-19.5 76t-29 55.5t-34.5 48l-114 140q80 61 172.5 112.5t193.5 88t208 57t216 20.5q211 0 349 -69t196 -213q23 -56 28 -128.5t5 -146.5v-1150q0 -71 -17.5 -136.5
t-57.5 -115.5t-105 -81t-160 -32z" />
    <glyph glyph-name="topatakphintuthai" unicode="&#xe0f;&#xe3a;" horiz-adv-x="1780" 
d="M1184 -758q0 40 15 74.5t40 60t57.5 40t67.5 14.5q42 0 76.5 -14.5t59 -40t38.5 -60t14 -74.5q0 -37 -14 -69.5t-38.5 -57t-59 -39t-76.5 -14.5q-35 0 -67.5 14.5t-57.5 39t-40 57t-15 69.5zM757 -232l221 162l254 -168q21 0 33 14.5t17 35.5t6 43.5t1 37.5v1127
q0 86 -10.5 159.5t-47.5 127t-109.5 84t-196.5 30.5q-112 0 -223 -32.5t-216 -81.5q22 -22 44.5 -56t41 -74t30 -84t11.5 -85v-668q0 -83 -26 -147t-73 -108t-111.5 -66.5t-141.5 -22.5q-16 0 -33 0.5t-33 3.5l-53 184q81 0 127.5 16.5t69 47.5t28 76t5.5 102v496
q0 66 -7 110.5t-19.5 76t-29 55.5t-35.5 48l-114 140q80 61 172.5 112.5t193.5 88t208 57t216 20.5q211 0 347 -68.5t198 -213.5q22 -56 27.5 -128.5t5.5 -146.5v-1180q0 -62 -13.5 -122t-50.5 -107.5t-102.5 -77t-169.5 -29.5l-221 164l-221 -164l-224 178
q-21 -4 -45.5 -20t-47.5 -39t-43.5 -49.5t-34.5 -51.5l-183 80q32 52 74.5 98t91.5 82t102.5 60.5t107.5 33.5z" />
    <glyph glyph-name="dochadasarauthai" unicode="&#xe0e;&#xe38;" horiz-adv-x="1784" 
d="M872 -274q-15 -6 -37.5 -22t-46.5 -38.5t-46.5 -49t-37.5 -54.5l-196 86q32 52 76.5 99.5t96 85t107 63.5t109.5 35l319 -164q14 0 27 13.5t23.5 35.5t17 50t6.5 57v1097q0 86 -10.5 159.5t-47.5 127t-110 84t-197 30.5q-111 0 -222 -32.5t-216 -81.5q21 -22 44.5 -56
t42.5 -74t31.5 -84t12.5 -85v-668q0 -83 -27 -147t-74.5 -108t-112.5 -66.5t-142 -22.5q-16 0 -33 0.5t-33 3.5l-53 184q81 0 127 16.5t68.5 47.5t28 76t5.5 102v496q0 66 -7 110.5t-19.5 76t-29 55.5t-34.5 48l-114 140q80 61 172.5 112.5t193.5 88t208 57t216 20.5
q211 0 349 -69t196 -213q23 -56 28 -128.5t5 -146.5v-1150q0 -71 -17.5 -136.5t-57.5 -115.5t-105 -81t-160 -32zM1291 -1004v173q0 38 -18.5 63.5t-40.5 40.5q-26 18 -59 28l149 173q59 -13 107 -46q20 -14 39 -33.5t34 -46.5t24.5 -61t9.5 -76v-215h-245z" />
    <glyph glyph-name="topataksarauthai" unicode="&#xe0f;&#xe38;" horiz-adv-x="1780" 
d="M757 -232l221 162l254 -168q21 0 33 14.5t17 35.5t6 43.5t1 37.5v1127q0 86 -10.5 159.5t-47.5 127t-109.5 84t-196.5 30.5q-112 0 -223 -32.5t-216 -81.5q22 -22 44.5 -56t41 -74t30 -84t11.5 -85v-668q0 -83 -26 -147t-73 -108t-111.5 -66.5t-141.5 -22.5
q-16 0 -33 0.5t-33 3.5l-53 184q81 0 127.5 16.5t69 47.5t28 76t5.5 102v496q0 66 -7 110.5t-19.5 76t-29 55.5t-35.5 48l-114 140q80 61 172.5 112.5t193.5 88t208 57t216 20.5q211 0 347 -68.5t198 -213.5q22 -56 27.5 -128.5t5.5 -146.5v-1180q0 -62 -13.5 -122
t-50.5 -107.5t-102.5 -77t-169.5 -29.5l-221 164l-221 -164l-224 178q-21 -4 -45.5 -20t-47.5 -39t-43.5 -49.5t-34.5 -51.5l-183 80q32 52 74.5 98t91.5 82t102.5 60.5t107.5 33.5zM1291 -1004v173q0 38 -18.5 63.5t-40.5 40.5q-26 18 -59 28l149 173q59 -13 107 -46
q20 -14 39 -33.5t34 -46.5t24.5 -61t9.5 -76v-215h-245z" />
    <glyph glyph-name="dochadasarauuthai" unicode="&#xe0e;&#xe39;" horiz-adv-x="1784" 
d="M1002 -823q0 -39 6.5 -79t24 -72.5t48.5 -53.5t80 -21q51 0 85 14t54.5 43.5t29 74t8.5 106.5v180l200 33v-225q0 -36 -4.5 -77.5t-19 -82.5t-41 -78.5t-70 -66.5t-107 -46.5t-151.5 -17.5q-83 0 -147 23t-108.5 66t-68 104.5t-24.5 138.5v33q0 31 -11 54t-24 38
q-16 18 -35 30l160 127q31 -26 57 -55q22 -25 40 -55.5t18 -61.5v-73zM872 -274q-15 -6 -37.5 -22t-46.5 -38.5t-46.5 -49t-37.5 -54.5l-196 86q32 52 76.5 99.5t96 85t107 63.5t109.5 35l319 -164q14 0 27 13.5t23.5 35.5t17 50t6.5 57v1097q0 86 -10.5 159.5t-47.5 127
t-110 84t-197 30.5q-111 0 -222 -32.5t-216 -81.5q21 -22 44.5 -56t42.5 -74t31.5 -84t12.5 -85v-668q0 -83 -27 -147t-74.5 -108t-112.5 -66.5t-142 -22.5q-16 0 -33 0.5t-33 3.5l-53 184q81 0 127 16.5t68.5 47.5t28 76t5.5 102v496q0 66 -7 110.5t-19.5 76t-29 55.5
t-34.5 48l-114 140q80 61 172.5 112.5t193.5 88t208 57t216 20.5q211 0 349 -69t196 -213q23 -56 28 -128.5t5 -146.5v-1150q0 -71 -17.5 -136.5t-57.5 -115.5t-105 -81t-160 -32z" />
    <glyph glyph-name="topataksarauuthai" unicode="&#xe0f;&#xe39;" horiz-adv-x="1780" 
d="M997 -823q0 -39 6.5 -79t24 -72.5t48.5 -53.5t80 -21q51 0 85 14t54.5 43.5t29 74t8.5 106.5v180l200 33v-225q0 -36 -4.5 -77.5t-19 -82.5t-41 -78.5t-70 -66.5t-107 -46.5t-151.5 -17.5q-83 0 -147 23t-108.5 66t-68 104.5t-24.5 138.5v33q0 31 -11 54t-24 38
q-16 18 -35 30l160 127q31 -26 57 -55q22 -25 40 -55.5t18 -61.5v-73zM757 -232l221 162l254 -168q21 0 33 14.5t17 35.5t6 43.5t1 37.5v1127q0 86 -10.5 159.5t-47.5 127t-109.5 84t-196.5 30.5q-112 0 -223 -32.5t-216 -81.5q22 -22 44.5 -56t41 -74t30 -84t11.5 -85v-668
q0 -83 -26 -147t-73 -108t-111.5 -66.5t-141.5 -22.5q-16 0 -33 0.5t-33 3.5l-53 184q81 0 127.5 16.5t69 47.5t28 76t5.5 102v496q0 66 -7 110.5t-19.5 76t-29 55.5t-35.5 48l-114 140q80 61 172.5 112.5t193.5 88t208 57t216 20.5q211 0 347 -68.5t198 -213.5
q22 -56 27.5 -128.5t5.5 -146.5v-1180q0 -62 -13.5 -122t-50.5 -107.5t-102.5 -77t-169.5 -29.5l-221 164l-221 -164l-224 178q-21 -4 -45.5 -20t-47.5 -39t-43.5 -49.5t-34.5 -51.5l-183 80q32 52 74.5 98t91.5 82t102.5 60.5t107.5 33.5z" />
    <glyph glyph-name=".notdef" horiz-adv-x="1323" 
d="M1348 1278v-45h20q21 0 21 29q0 4 -4.5 10t-16.5 6h-20zM1356 1229h-8v-45h-17v110h37q37 0 37 -32q0 -21 -8 -27t-25 -6l33 -45h-16zM1368 1167q41 0 55.5 22.5t14.5 43.5q0 37 -18.5 57.5t-51.5 20.5q-37 0 -55.5 -20.5t-18.5 -57.5q0 -25 16.5 -45.5t57.5 -20.5z
M1368 1319q41 0 59.5 -24.5t18.5 -61.5q0 -25 -18.5 -49.5t-59.5 -24.5t-61.5 24.5t-20.5 49.5q0 37 20.5 61.5t61.5 24.5zM643 1008q49 0 118.5 -10.5t137.5 -22.5t125 -30.5t86 -39.5q-61 127 -196.5 194.5t-274.5 67.5q-111 0 -209 -41t-160 -127q58 9 115 11t115 2h69
t74 -4zM1196 1262v-455q-152 49 -350.5 82t-415.5 33q-151 0 -299 -17q21 70 61.5 135.5t104 114.5t147.5 78t187 29q102 0 182 -22.5t139.5 -53.5t100.5 -70t57 -67q0 -5 0 20v59.5v73.5v60h86zM487 406q0 24 -16 38.5t-37 14.5q-20 0 -36.5 -14.5t-16.5 -38.5
q0 -25 16.5 -37.5t36.5 -12.5q21 0 37 12.5t16 37.5zM102 442q0 74 29 131.5t76 96.5t108.5 59.5t126.5 20.5q62 0 121.5 -18.5t106.5 -53.5t73.5 -90.5t26.5 -128.5v-373h340v647h86v-729h-602v82h94v381q0 94 -71.5 143t-174.5 49q-94 0 -169.5 -53t-75.5 -147v-344
l184 184q-16 8 -43 32.5t-27 74.5q0 57 37 89.5t94 32.5q54 0 86.5 -34.5t32.5 -87.5q0 -46 -16.5 -70.5t-28.5 -36.5q-8 -4 -55 -51t-105 -101q-69 -65 -151 -143h-103v438z" />
    <glyph glyph-name=".null" 
 />
    <glyph glyph-name="nonmarkingreturn" horiz-adv-x="905" 
 />
    <glyph glyph-name="space" unicode=" " horiz-adv-x="799" 
 />
    <glyph glyph-name="exclam" unicode="!" horiz-adv-x="1181" 
d="M680 586h-184l-57 1450l295 37zM771 176q0 -41 -14 -75.5t-38 -59.5t-57 -39t-72 -14q-40 0 -73 14t-57 38.5t-37 58t-13 73.5q0 38 13 70.5t37 56t57 36.5t73 13q39 0 72 -13t57 -36t38 -54.5t14 -68.5z" />
    <glyph glyph-name="quotedbl" unicode="&#x22;" horiz-adv-x="1540" 
d="M446 2114h218v-684l-218 -46v730zM877 2114h217v-684l-217 -46v730z" />
    <glyph glyph-name="numbersign" unicode="#" horiz-adv-x="1786" 
d="M451 627h-308l33 204h303l58 439h-304l33 205h303l86 618h217l-90 -618h369l86 618h213l-86 -618h303l-25 -205h-307l-65 -439h311l-25 -204h-311l-90 -627h-213l86 627h-360l-90 -627h-218zM1122 1270h-364l-62 -439h365z" />
    <glyph glyph-name="dollar" unicode="$" horiz-adv-x="1655" 
d="M733 -25q-167 4 -325 51t-297 134l139 184q120 -86 237 -123.5t246 -40.5v787q-64 15 -129.5 38.5t-127.5 56t-116.5 75.5t-95.5 97.5t-64.5 121t-23.5 147.5q0 112 44 209t119.5 172.5t177 126t216.5 70.5v232l185 38v-266q70 -5 143 -19.5t144.5 -40.5t139.5 -63
t130 -86l-107 -168q-63 46 -122 77t-115 50.5t-109 29.5t-104 15v-704q130 -42 238 -95t185 -123.5t119.5 -162t42.5 -209.5q0 -105 -46.5 -204t-126.5 -180.5t-186 -139t-226 -78.5v-287h-185v278zM733 1872q-66 -12 -119.5 -40t-92 -69.5t-59 -94.5t-20.5 -116
q0 -52 21.5 -97.5t59.5 -85t91.5 -73.5t118.5 -63v639zM918 193q66 13 122 47t97.5 82t64.5 107t23 124q0 121 -78 211t-229 145v-716z" />
    <glyph glyph-name="percent" unicode="%" horiz-adv-x="2507" 
d="M1663 2048l168 -70l-967 -1978l-172 82zM1417 479q0 117 34 211t97.5 160t154 101.5t202.5 35.5q124 0 216.5 -39t153.5 -108.5t91 -165t30 -207.5t-34.5 -203.5t-98.5 -156.5t-155 -100.5t-203 -35.5q-111 0 -201 36t-153.5 102.5t-98.5 160.5t-35 209zM1901 815
q-69 0 -121 -21.5t-86 -61.5t-51 -97t-17 -127q0 -86 16.5 -154.5t51.5 -116t89.5 -73t129.5 -25.5q63 0 113.5 21.5t86.5 62.5t55 99.5t19 132.5q0 61 -10 125t-41 116t-87 85.5t-148 33.5zM106 1540q0 117 33 210t95 158.5t151 100.5t201 35q126 0 218.5 -38.5t153 -107.5
t90 -164.5t29.5 -209.5q0 -112 -34 -203.5t-97.5 -156.5t-153.5 -100.5t-202 -35.5t-201.5 37t-152.5 104t-96.5 161.5t-33.5 209.5zM586 1876q-69 0 -120 -22t-84.5 -63t-50 -98.5t-16.5 -127.5q0 -86 15.5 -154t49 -115t87.5 -71.5t131 -24.5q63 0 113.5 21t86.5 61
t55 97.5t19 131.5q0 42 -4 85.5t-15.5 84t-31.5 76t-52 62t-77 42t-106 15.5z" />
    <glyph glyph-name="ampersand" unicode="&#x26;" horiz-adv-x="2044" 
d="M1712 979q0 -129 -8 -219t-22 -155.5t-33.5 -114.5t-42.5 -97l266 -266l-165 -164l-237 238q-43 -54 -107.5 -97.5t-143 -73.5t-166 -46.5t-176.5 -16.5q-158 0 -287.5 39.5t-221.5 112.5t-142 174.5t-50 226.5q0 97 27 171.5t79 134.5t127.5 108.5t172.5 93.5
q-136 126 -207.5 244.5t-71.5 249.5q0 104 45.5 185.5t121 137t174 84.5t204.5 29q123 0 226.5 -27t177.5 -82t115.5 -137t41.5 -193q0 -87 -26 -160t-79.5 -135.5t-135 -116.5t-193.5 -103l463 -451q40 84 52.5 178t12.5 187zM741 905q-69 -35 -125.5 -79t-97 -95.5
t-62.5 -109.5t-22 -121q0 -77 33 -140.5t92.5 -108.5t142.5 -70t183 -25q70 0 138.5 14.5t128 39.5t107 58.5t76.5 71.5zM557 1532q0 -57 15 -101t48 -87.5t84 -92.5t123 -116q105 46 173 94t107.5 96.5t54.5 97.5t15 96q0 60 -24.5 108t-68.5 81.5t-104 51.5t-132 18
q-51 0 -102.5 -13t-93.5 -42t-68.5 -76t-26.5 -115z" />
    <glyph glyph-name="quotesingle" unicode="'" horiz-adv-x="831" 
d="M311 2105h217v-684l-217 -45v729z" />
    <glyph glyph-name="parenleft" unicode="(" horiz-adv-x="1028" 
d="M417 971q0 -123 7.5 -248t28 -247t58 -237t97 -218t144.5 -190.5t202 -154.5l-74 -122q-139 55 -245.5 142t-184.5 196.5t-130.5 238t-84.5 266.5t-45.5 281.5t-13.5 284.5q0 135 14.5 270t47.5 264t86 248t131.5 222t183.5 186t241 141l62 -123q-112 -66 -194 -145.5
t-140.5 -170t-95.5 -192t-58 -213t-29 -231.5t-8 -248z" />
    <glyph glyph-name="parenright" unicode=")" horiz-adv-x="1020" 
d="M602 971q0 128 -7.5 248t-28 231.5t-57 213t-94 192t-139.5 169.5t-194 146l58 123q136 -57 241 -140.5t183.5 -186.5t131.5 -222t86 -248t47.5 -264t14.5 -270q0 -140 -13.5 -284t-45.5 -282t-84.5 -266.5t-130.5 -238t-184.5 -196.5t-245.5 -142l-70 122
q116 67 200.5 154.5t143.5 190.5t95.5 218t57 237t28 247t7.5 248z" />
    <glyph glyph-name="asterisk" unicode="*" horiz-adv-x="1335" 
d="M766 1667l430 148l57 -177l-426 -147l275 -369l-156 -118l-274 376l-271 -381l-155 123l270 369l-426 143l57 181l431 -148v442h188v-442z" />
    <glyph glyph-name="plus" unicode="+" horiz-adv-x="1507" 
d="M111 856h532v533h221v-533h533v-221h-533v-533h-221v533h-532v221z" />
    <glyph glyph-name="comma" unicode="," horiz-adv-x="795" 
d="M176 -291q93 44 138.5 112t58.5 154q-3 0 -12 -2t-21 -2q-34 0 -63.5 15t-52 41.5t-35.5 61.5t-13 75q0 46 16 85.5t44 69t66 46t83 16.5q54 0 97.5 -21t75 -59.5t48.5 -91t17 -115.5q0 -84 -30 -160.5t-81.5 -141.5t-120 -118t-145.5 -92z" />
    <glyph glyph-name="hyphen" unicode="-" horiz-adv-x="1491" 
d="M283 856h966v-221h-966v221z" />
    <glyph glyph-name="period" unicode="." horiz-adv-x="803" 
d="M201 176q0 42 14.5 77t40.5 61t62 40.5t79 14.5q45 0 82 -14.5t63.5 -40.5t41 -61t14.5 -77q0 -45 -14.5 -82.5t-40 -64.5t-61 -42.5t-76.5 -15.5q-45 0 -82.5 15.5t-64.5 42.5t-42.5 64.5t-15.5 82.5z" />
    <glyph glyph-name="slash" unicode="/" horiz-adv-x="1331" 
d="M921 2156h225l-753 -2618h-237z" />
    <glyph glyph-name="zero" unicode="0" horiz-adv-x="1677" 
d="M81 1024q0 243 56 435.5t156.5 327t238.5 206t303 71.5q130 0 237 -42t191.5 -116.5t147 -176.5t103.5 -222t61.5 -253.5t20.5 -270.5q0 -123 -20.5 -246t-62 -236.5t-103.5 -211.5t-146 -170.5t-189 -114t-232 -41.5q-125 0 -230 41t-189.5 114t-149 173t-107.5 217.5
t-64.5 249t-21.5 266.5zM1321 950q0 87 -8 188.5t-28.5 202t-55 193.5t-88.5 164.5t-129.5 114.5t-176.5 43q-88 0 -158 -33t-123 -89.5t-91 -133t-62 -163.5t-35 -180t-11 -184q0 -89 8.5 -190.5t30 -202.5t58 -194.5t92 -165t132 -114t179.5 -42.5q85 0 153 33t120 90
t88.5 133.5t59.5 164t34 181t11 184.5z" />
    <glyph glyph-name="one" unicode="1" horiz-adv-x="1677" 
d="M308 1683q43 21 87.5 46.5t88 54t85 58t77.5 56.5q85 64 166 132l190 3v-1834h415l-45 -199h-1026v199h402v1522q-43 -28 -99.5 -56.5t-112 -53t-103 -43t-72.5 -26.5z" />
    <glyph glyph-name="two" unicode="2" horiz-adv-x="1679" 
d="M1232 1540q0 74 -29 132.5t-80 99.5t-119.5 62.5t-147.5 21.5q-72 0 -141 -17t-136 -48.5t-131.5 -76t-128.5 -100.5l-98 160q71 63 152.5 115t171 89t185.5 57.5t196 20.5q103 0 205 -29.5t184 -92t133 -160t51 -234.5q0 -63 -10 -130t-40 -143t-86 -163.5t-148 -190.5
q-49 -55 -126.5 -133t-173.5 -171.5t-206 -199.5t-225 -217q28 1 75 2.5t100.5 3t106 2t90.5 0.5h651l-45 -200h-1269v184q51 46 116.5 108t139.5 134.5t152.5 153t155 164t147.5 167t131 162.5q57 75 95 139.5t60.5 121.5t32 107.5t9.5 98.5z" />
    <glyph glyph-name="three" unicode="3" horiz-adv-x="1679" 
d="M561 1192q61 0 116 1q23 0 47.5 1t47 1.5t41.5 1.5t32 3q94 10 157 44.5t100.5 83t53.5 106.5t16 116q0 67 -29 124t-79 98.5t-117 64.5t-144 23q-51 0 -105.5 -9t-115.5 -31t-129.5 -57.5t-146.5 -89.5l-89 158q67 54 145 95.5t160 70.5t166 44t164 15
q133 0 240.5 -34.5t184 -97t118.5 -151t43 -196.5q1 -89 -21.5 -166.5t-66 -139.5t-107.5 -106t-145 -67q101 -29 175.5 -81t123.5 -119.5t72 -146t22 -161.5q-2 -117 -39.5 -211t-101.5 -166t-150 -123.5t-185.5 -83t-208 -44t-216.5 -7.5q-68 3 -153.5 11.5t-166.5 21.5
l-72 185q77 -25 156 -33t147 -8q168 0 299 37.5t221 102t137.5 151.5t47.5 187q0 96 -40.5 172.5t-118.5 130.5t-192 82.5t-261 28.5h-82z" />
    <glyph glyph-name="four" unicode="4" horiz-adv-x="1679" 
d="M898 2032h254l-521 -1037q-10 -19 -23 -44t-28 -53.5t-30.5 -58t-30.5 -57.5q-35 -66 -73 -137q28 2 55 4q23 2 49 3t48 1h519v83v43.5v76.5t0.5 96t1 102t1.5 94t2 73l16 319l214 62v-734q0 -57 -0.5 -97.5t-1.5 -66.5q-1 -31 -2 -51q28 1 54 2q23 1 46 1.5t39 0.5h119
l-50 -198h-94q-12 0 -31.5 0.5t-37.5 1.5q-22 1 -45 2l2 -50q1 -21 1.5 -43.5t0.5 -37.5v-312l-239 -65v344q0 14 0.5 41.5t1.5 54.5q1 32 2 68q-38 -1 -72 -2q-29 -1 -58.5 -1.5t-44.5 -0.5h-758v176z" />
    <glyph glyph-name="five" unicode="5" horiz-adv-x="1679" 
d="M406 2026h946l-35 -218l-689 1l-63 -526q36 3 74 7q32 3 71 5.5t76 2.5q85 0 166 -12t152.5 -39.5t131 -72.5t103 -111.5t67.5 -156t24 -206.5q0 -118 -32 -218t-90 -181.5t-139 -143.5t-179 -104.5t-209.5 -64t-231.5 -21.5q-71 0 -139.5 9t-126.5 24l-48 202
q21 -8 51.5 -15.5t66 -14.5t73.5 -11t75 -4q147 0 270.5 37.5t212.5 108t138.5 171t49.5 226.5q0 113 -39 190.5t-104.5 124.5t-150.5 66.5t-177 18.5q-54 -1 -114.5 -6t-117.5 -13.5t-106 -20t-80 -25.5z" />
    <glyph glyph-name="six" unicode="6" horiz-adv-x="1679" 
d="M179 733q0 192 47 373.5t142 340t238 286.5t335 212q28 12 66 26.5t76.5 28t72 23.5t51.5 13l58 -165q-34 -9 -71.5 -22.5t-71.5 -27t-61.5 -25.5t-41.5 -19q-112 -57 -199.5 -127.5t-155 -153.5t-115.5 -179.5t-80 -206.5q87 74 200.5 112.5t230.5 38.5q135 0 245.5 -49
t189 -136.5t121.5 -208.5t43 -265q0 -136 -50 -252t-138 -201t-208 -133.5t-260 -48.5q-157 0 -280 55t-208.5 155.5t-130.5 242t-45 313.5zM855 1089q-99 0 -201 -41t-201 -118q-2 -29 -4 -60q-2 -27 -3 -60t-1 -65q0 -59 7 -126t24.5 -134t47 -129t73.5 -109t105 -75.5
t141 -28.5q91 0 163.5 32.5t123.5 92t78 142.5t27 184q0 98 -19.5 187.5t-64.5 158t-117.5 109t-178.5 40.5z" />
    <glyph glyph-name="seven" unicode="7" horiz-adv-x="1679" 
d="M164 1822l53 205h1376l-57 -229q-104 -119 -211.5 -246.5t-208.5 -265t-190 -284.5t-155.5 -304.5t-105 -325.5t-38.5 -347l-304 -66q5 208 53 398t125.5 362.5t177 327.5t207.5 293.5t217.5 260.5t206.5 229q-30 -2 -64 -4q-29 -2 -66.5 -3t-77.5 -1h-938z" />
    <glyph glyph-name="eight" unicode="8" horiz-adv-x="1679" 
d="M1438 1589q0 -100 -38 -178t-98 -139t-132.5 -105.5t-141.5 -76.5l168 -82q80 -40 142.5 -93.5t105.5 -114.5t65.5 -125.5t22.5 -125.5q0 -88 -23 -165.5t-67 -143.5q-42 -63 -102 -113.5t-136.5 -86t-169 -54.5t-198.5 -19q-165 0 -293 43.5t-216 119t-134 178
t-46 220.5q0 71 20.5 133.5t55.5 117t80.5 100t95.5 82t101.5 63.5t97.5 45q-74 35 -137 85t-109 111.5t-72 133t-26 149.5q0 108 41.5 201.5t120.5 162.5t194 108.5t262 39.5q126 0 230 -35.5t179 -98.5t116 -149t41 -188zM845 1177q80 35 143 79t107 94t67 105t23 114
q0 74 -24 133t-68 100t-107.5 62.5t-141.5 21.5q-72 0 -132 -25.5t-103 -69t-67 -102t-24 -124.5q0 -39 7.5 -88t39.5 -101t98 -103.5t182 -95.5zM1270 518q0 59 -21 110t-56.5 94.5t-83 80.5t-101.5 68t-111 57t-111 49q-59 -26 -124.5 -65t-121 -93t-92 -122.5
t-36.5 -152.5q0 -89 30.5 -163.5t87.5 -128t139.5 -83t186.5 -29.5q87 0 162.5 28t131.5 78t88 119.5t32 152.5z" />
    <glyph glyph-name="nine" unicode="9" horiz-adv-x="1677" 
d="M1499 1295q0 -192 -47 -373.5t-142 -340t-238 -286.5t-335 -212q-28 -12 -66 -26.5t-76.5 -28t-72 -23.5t-51.5 -13l-58 165q34 9 71.5 22.5t71.5 27t61.5 25.5t41.5 19q112 57 199.5 127.5t155 153.5t115.5 179.5t80 206.5q-87 -74 -200.5 -112.5t-230.5 -38.5
q-135 0 -245.5 49t-189 136.5t-121.5 208.5t-43 265q0 136 50 252t138 201t208 133.5t260 48.5q157 0 280 -55t208.5 -155.5t130.5 -242t45 -313.5zM823 939q99 0 201 41t201 118q2 28 4 60q2 26 3 59.5t1 65.5q0 58 -7 125.5t-24.5 134.5t-47 129t-73.5 109t-105 75.5
t-141 28.5q-91 0 -163.5 -32.5t-123.5 -92t-78 -142.5t-27 -184q0 -98 19.5 -187.5t64.5 -158t117.5 -109t178.5 -40.5z" />
    <glyph glyph-name="colon" unicode=":" horiz-adv-x="893" 
d="M254 164q0 41 15 77t41.5 62.5t62.5 41.5t78 15q40 0 75 -15t61 -41t41 -61t15 -75q0 -43 -15 -79t-41.5 -62.5t-62.5 -41t-78 -14.5q-41 0 -76.5 14.5t-61 40.5t-40 61t-14.5 77zM254 1159q0 42 15 78t41.5 62.5t62.5 41.5t78 15q40 0 75 -14.5t61 -40.5t41 -61t15 -77
q0 -40 -15 -75.5t-41 -62.5t-61 -42.5t-75 -15.5q-42 0 -78 15t-62.5 41t-41.5 61t-15 75z" />
    <glyph glyph-name="semicolon" unicode=";" horiz-adv-x="893" 
d="M238 1167q0 39 14.5 72.5t40 58.5t60.5 39.5t77 14.5t78 -15t62.5 -41.5t41.5 -61.5t15 -75t-14.5 -76.5t-40.5 -64t-61 -44t-77 -16.5q-41 0 -77 16.5t-62.5 45t-41.5 66.5t-15 81zM233 -291q87 44 137.5 110t59.5 152q-4 -1 -9 -2t-10.5 -1.5t-13.5 -0.5q-32 0 -62 15
t-52.5 41t-36 60t-13.5 73q0 44 16.5 82.5t45 66.5t66.5 44t81 16q51 0 94 -20.5t74 -57.5t48.5 -88.5t17.5 -112.5q0 -83 -30 -159.5t-82.5 -142.5t-122.5 -119.5t-150 -90.5z" />
    <glyph glyph-name="less" unicode="&#x3c;" horiz-adv-x="1364" 
d="M1225 1315v-230l-688 -299l-148 -65l184 -53l652 -238v-225l-1102 409v193z" />
    <glyph glyph-name="equal" unicode="=" horiz-adv-x="1978" 
d="M217 1225h1544v-205h-1544v205zM217 766h1544v-205h-1544v205z" />
    <glyph glyph-name="greater" unicode="&#x3e;" horiz-adv-x="1364" 
d="M1225 807v-193l-1102 -409v225l651 238l184 53l-180 74l-655 290v230z" />
    <glyph glyph-name="question" unicode="?" horiz-adv-x="1451" 
d="M1007 1139q-44 -37 -84 -84t-71 -100.5t-49.5 -112t-18.5 -118.5q0 -34 4 -69t13 -75l-197 -49q-24 105 -24 209q0 58 12.5 121.5t40.5 129.5t73.5 132t111.5 131q40 39 75 77.5t61.5 78t41.5 80.5t15 85q0 77 -23.5 129.5t-62 85t-89 47t-104.5 14.5q-46 0 -94 -9
t-96.5 -30t-96.5 -55t-94 -83l-123 147q57 52 118.5 96t129 76t142.5 49.5t159 17.5q95 0 181 -28.5t150.5 -87.5t101.5 -151t34 -218q-2 -71 -22 -133.5t-53 -117.5t-75 -101t-87 -84zM528 172q0 42 14.5 78t40.5 62.5t62 41.5t79 15t80 -15t64 -41.5t42 -62.5t15 -78
q0 -45 -15 -82.5t-41.5 -64.5t-62.5 -42.5t-78 -15.5q-43 0 -79.5 15.5t-63.5 42.5t-42 64.5t-15 82.5z" />
    <glyph glyph-name="at" unicode="@" horiz-adv-x="2388" 
d="M1589 795q-24 -87 -24 -131q0 -22 4.5 -35.5t12.5 -21t20.5 -10.5t27.5 -3q47 0 96 24.5t94.5 68.5t85.5 104t70 131.5t47 151.5t17 163q0 115 -30.5 215t-85 183.5t-129.5 148.5t-163.5 110.5t-187 69t-199.5 23.5q-127 0 -243.5 -34.5t-217.5 -97t-184 -149
t-141.5 -190.5t-90.5 -222.5t-32 -244.5q0 -131 33 -251t93 -223.5t143.5 -187.5t183.5 -143.5t213.5 -92t234.5 -32.5q108 0 213.5 24t201.5 68.5t178 108t144 143.5h201q-72 -123 -173.5 -218.5t-223.5 -160.5t-259.5 -99t-281.5 -34q-156 0 -298.5 38.5t-265.5 109.5
t-223 170.5t-171 221.5t-109.5 263t-38.5 295q0 153 40 294.5t112.5 264t174.5 222.5t225.5 171t265.5 110t296 39q136 0 263 -29.5t238.5 -85.5t203 -135.5t157.5 -179t102 -217.5t36 -250t-32.5 -247.5t-87 -211.5t-126 -171t-149 -127t-155.5 -79.5t-147 -27.5
q-37 0 -70.5 11t-60 33.5t-44 57t-21.5 82.5q-36 -38 -73 -71.5t-81 -58.5t-96.5 -39.5t-118.5 -14.5q-95 0 -172.5 39t-132 105.5t-84 154t-29.5 184.5q0 103 21.5 204t63 192.5t101.5 169t136.5 134t168 88.5t197.5 32q52 0 101 -12t92 -39t79.5 -72t63.5 -111l58 217
l192 -41zM782 897q0 -60 19.5 -115t54 -96.5t80.5 -66.5t100 -25q63 0 123 29t112 79t93 118.5t66 146.5q18 58 31.5 124.5t13.5 137.5q-2 51 -13 97.5t-36.5 82t-67.5 57t-105 21.5q-69 0 -130.5 -25t-113.5 -68.5t-94 -101.5t-71.5 -123.5t-45.5 -135.5t-16 -136z" />
    <glyph glyph-name="A" unicode="A" horiz-adv-x="1716" 
d="M1028 2032l676 -2032h-287l-200 659h-742l-205 -659h-254l676 2032h336zM1159 860l-303 942l-315 -942h618z" />
    <glyph glyph-name="B" unicode="B" horiz-adv-x="1774" 
d="M270 2032h533q83 0 167.5 -7t162.5 -26.5t146.5 -54t119 -90t79.5 -135t29 -187.5q0 -75 -23 -144.5t-67 -129t-107 -106t-143 -75.5q99 -20 181 -60.5t141 -102.5t92 -147t33 -194q0 -156 -55 -265.5t-149 -177.5t-218 -99t-262 -31h-660v2032zM520 1819v-656h340
q80 0 149 17t119.5 56t79.5 103.5t29 159.5q0 103 -32.5 166t-85.5 97t-122 45.5t-141 11.5h-336zM520 954v-749h426q111 0 188.5 27.5t127 78t72 122.5t22.5 161q0 111 -38 180.5t-104.5 109t-156.5 54t-193 16.5h-344z" />
    <glyph glyph-name="C" unicode="C" horiz-adv-x="1724" 
d="M1040 2056q149 0 283 -36.5t246 -123.5l-107 -188q-104 83 -211 115t-215 32q-121 0 -213.5 -37.5t-160.5 -101.5t-114 -150.5t-74 -184t-40 -202t-12 -204.5q0 -92 15.5 -187t48.5 -184t85 -167t125 -136t167.5 -91.5t213.5 -33.5q52 0 112.5 9.5t122.5 31t123.5 58
t116.5 90.5l99 -189q-74 -65 -149.5 -105.5t-152 -63.5t-154 -31.5t-155.5 -8.5q-144 0 -266.5 40.5t-221.5 112.5t-175 171t-127 215t-77 245t-26 261q0 150 30.5 286t87 252t137 209.5t179.5 159.5t215 101.5t244 35.5z" />
    <glyph glyph-name="D" unicode="D" horiz-adv-x="1880" 
d="M270 2032h500q237 0 408 -68t281.5 -198t163 -320t52.5 -434q0 -139 -19.5 -268t-61 -241.5t-108 -205t-161 -158.5t-218 -102.5t-280.5 -36.5h-557v2032zM520 1827v-1618h242q184 0 307.5 52.5t198 152t106 243t31.5 326.5q0 112 -11.5 217.5t-39.5 198.5t-75.5 170.5
t-119 134t-169.5 89t-228 34.5h-242z" />
    <glyph glyph-name="E" unicode="E" horiz-adv-x="1552" 
d="M270 2032h1178l-57 -209h-871v-647h721v-218h-721v-741h930v-217h-1180v2032z" />
    <glyph glyph-name="F" unicode="F" horiz-adv-x="1563" 
d="M270 2032h1178l-57 -209h-871v-647h721v-218h-721v-959l-250 1v2032z" />
    <glyph glyph-name="G" unicode="G" horiz-adv-x="1851" 
d="M1024 2052q178 0 315.5 -51.5t253.5 -149.5l-86 -184q-58 48 -114 82.5t-114 57t-119 33.5t-128 11q-121 0 -212.5 -33t-159 -92t-112.5 -139t-72 -174t-38.5 -198.5t-11.5 -210.5q0 -107 11.5 -209.5t39.5 -194.5t73.5 -169.5t114 -134t161 -88.5t214.5 -32
q45 0 90.5 5.5t89 16t82.5 25.5t70 35v631h-483l57 209h664v-975q-56 -37 -125 -66t-145.5 -49t-158 -30.5t-161.5 -10.5q-217 0 -378.5 79.5t-268.5 220t-160 331.5t-53 414q0 145 21.5 278.5t66 249t114 210t165.5 162t219.5 104t277.5 36.5z" />
    <glyph glyph-name="H" unicode="H" horiz-adv-x="1917" 
d="M270 2032h250v-856h877v856h250v-2032h-250v971h-877v-971h-250v2032z" />
    <glyph glyph-name="I" unicode="I" horiz-adv-x="791" 
d="M270 2032h250v-2032h-250v2032z" />
    <glyph glyph-name="J" unicode="J" horiz-adv-x="803" 
d="M287 2032h250v-1704q0 -149 -23 -267t-82 -207t-160 -152t-256 -103l-106 172q103 27 174 68.5t115.5 106t65 157t22.5 221.5v1708z" />
    <glyph glyph-name="K" unicode="K" horiz-adv-x="1675" 
d="M246 2032h250v-2032h-250v2032zM1249 2032h320l-783 -922l861 -1065l-258 -86l-889 1151z" />
    <glyph glyph-name="L" unicode="L" horiz-adv-x="1466" 
d="M270 2032h250v-1823h877l-74 -209h-1053v2032z" />
    <glyph glyph-name="M" unicode="M" horiz-adv-x="2359" 
d="M360 2032h361l348 -1217q8 -29 17 -64.5t18 -73.5t18 -77t17 -75q18 -84 37 -173q19 86 37 170q8 36 17 74.5l18 77t19 74.5t19 67l356 1217h361l164 -2032h-250l-94 1352q-2 27 -4 61t-4.5 70.5t-5 74t-4.5 72.5q-5 82 -11 168q-6 -24 -15 -59t-19.5 -76t-21.5 -85
t-22 -86t-20.5 -78.5t-16.5 -61.5l-401 -1352h-213l-393 1356q-5 13 -12.5 40.5t-16.5 63.5t-18.5 77.5t-19.5 83.5q-23 98 -48 214q-9 -114 -15 -212q-3 -42 -5.5 -84t-4.5 -78.5t-3 -65t-1 -43.5l-94 -1352h-241z" />
    <glyph glyph-name="N" unicode="N" horiz-adv-x="1913" 
d="M270 2032h287l643 -1209q20 -38 40.5 -78t41 -80.5t39.5 -80t36 -74.5q40 -83 77 -162q-3 28 -9 87t-11 142t-9 187.5t-4 222.5v1045h250v-2032h-262l-623 1155q-45 100 -93 196.5t-89 173.5q-48 90 -92 171q1 -12 3.5 -45t5.5 -79.5t6.5 -105t6 -121.5t4.5 -128.5
t2 -126.5v-1090h-250v2032z" />
    <glyph glyph-name="O" unicode="O" horiz-adv-x="1966" 
d="M164 1024q0 243 56.5 435.5t161.5 327t255 206t338 71.5q151 0 271.5 -42t212.5 -116.5t157 -176.5t106.5 -222t60.5 -253.5t19 -270.5q0 -123 -19.5 -246t-60.5 -236.5t-105.5 -211.5t-154.5 -170.5t-207.5 -114t-263.5 -41.5q-145 0 -263 41t-210 114t-158.5 173
t-110 217.5t-64.5 249t-21 266.5zM1528 950q0 91 -5.5 194.5t-25 205t-55.5 194.5t-97.5 164t-152 113.5t-217.5 42.5q-111 0 -194 -32t-143 -87.5t-99.5 -131.5t-62.5 -164t-32.5 -184t-9.5 -192q0 -94 7 -198.5t28 -206.5t59.5 -195t102 -163.5t155 -112t218.5 -41.5
q107 0 188 32.5t139 89t96 133t60.5 164.5t31.5 184t9 191z" />
    <glyph glyph-name="P" unicode="P" horiz-adv-x="1614" 
d="M270 2032h594q134 0 257 -30t217 -98.5t150 -179.5t56 -274q0 -154 -42.5 -273.5t-124.5 -201.5t-202.5 -125t-277.5 -43h-377v-807h-250v2032zM520 1819v-811h352q88 0 163 25.5t130 76t86 124.5t31 171q0 118 -35 197t-99.5 126.5t-156 68t-205.5 22.5h-266z" />
    <glyph glyph-name="Q" unicode="Q" horiz-adv-x="1978" 
d="M1524 950q0 90 -6.5 193t-26 205t-56.5 196t-98.5 166t-151 115t-214.5 43q-108 0 -190 -32.5t-142 -89t-99.5 -133t-63 -165t-33 -184.5t-9.5 -191q0 -94 6.5 -199t27 -207.5t58.5 -195.5t101 -164t154 -113t218 -42q106 0 186.5 33t139 90t97 134.5t61 166t32 184.5
t9.5 190zM1872 -360q-16 -4 -30.5 -4.5t-26.5 -0.5q-53 0 -103.5 17.5t-100.5 44.5t-99.5 59.5t-98.5 63.5q-46 29 -84.5 54.5t-80.5 44.5t-92.5 30.5t-119.5 13.5h-73q-140 3 -254 47t-203 119t-153.5 175.5t-106.5 217.5t-62 245t-20 257q0 243 55 435.5t159.5 327
t254 206t338.5 71.5q150 0 270 -42t212 -116.5t157.5 -176.5t107 -222t61 -253.5t19.5 -270.5q0 -125 -20 -258t-68 -257t-128.5 -228t-201.5 -170q23 -5 51 -17t56 -27t52.5 -31t41.5 -28q62 -49 133.5 -84t149.5 -35q21 0 40.5 3.5t41.5 9.5z" />
    <glyph glyph-name="R" unicode="R" horiz-adv-x="1651" 
d="M270 2032h537q82 0 163 -11.5t154.5 -37.5t137 -69t109.5 -105t72.5 -146t26.5 -193q0 -126 -38.5 -228.5t-110.5 -175.5t-174 -113t-229 -40q27 -20 54.5 -47t52 -56.5t46.5 -59t39 -54.5q15 -22 42 -61.5t60.5 -89.5t71 -106t74.5 -111l186 -279l-270 -69
q-21 51 -69 135t-116 190.5t-154.5 228.5t-184.5 248q-56 68 -112 98t-118 33v-913h-250v2032zM520 1823v-750h246q101 0 183 19t139.5 65t88.5 123.5t31 194.5q0 92 -31.5 157t-86.5 107t-129 62t-158 22h-283z" />
    <glyph glyph-name="S" unicode="S" horiz-adv-x="1655" 
d="M819 2061q83 0 158.5 -13t146 -39t138 -64t135.5 -89l-103 -170q-58 42 -113.5 73.5t-111.5 53t-114.5 32.5t-123.5 11q-93 0 -165.5 -22t-122 -63.5t-75.5 -100t-26 -130.5q0 -71 17 -120.5t55.5 -87t100.5 -67t151 -60.5l262 -91q105 -36 187.5 -82.5t140.5 -110.5
t88.5 -149t30.5 -199q0 -137 -55 -249t-152 -192.5t-229 -124.5t-285 -44q-92 0 -175 13.5t-159 38t-147 59.5t-138 78l104 182q64 -43 126.5 -74.5t125.5 -51.5t128.5 -30t134.5 -10q83 0 163 20.5t143 65.5t101.5 116t38.5 171q0 73 -15 127t-53.5 96t-105 76.5
t-170.5 69.5l-217 73q-81 28 -164.5 68.5t-150.5 101t-109.5 143.5t-42.5 195q0 129 45.5 234t129.5 180t203.5 115.5t268.5 40.5z" />
    <glyph glyph-name="T" unicode="T" horiz-adv-x="1528" 
d="M78 2032h1392l-57 -209h-524v-1823h-250v1823h-561v209z" />
    <glyph glyph-name="U" unicode="U" horiz-adv-x="1872" 
d="M262 2032h250v-1450q0 -92 18.5 -167t66.5 -128t129.5 -82t207.5 -29q120 0 201.5 29.5t131.5 83.5t71.5 129.5t21.5 167.5v1446h250v-1442q0 -174 -42.5 -293t-128 -192.5t-215 -105.5t-302.5 -32q-148 0 -268.5 32.5t-206.5 104.5t-134 187.5t-51 281.5v1459z" />
    <glyph glyph-name="V" unicode="V" horiz-adv-x="1716" 
d="M49 1999l246 57l418 -1265q21 -66 44 -143.5t42.5 -147.5t33.5 -125t19 -76q7 31 21.5 84.5t33 119.5t41.5 139t47 144l414 1246h254l-696 -2032h-250z" />
    <glyph glyph-name="W" unicode="W" horiz-adv-x="2449" 
d="M90 2011l258 45l262 -1241q8 -39 16.5 -84t16.5 -91.5t15.5 -93t13.5 -88.5q15 -99 28 -200q6 32 20 95.5t31 141.5t36 162t36 158l271 1217h270l270 -1217q25 -116 47 -217.5t39 -178.5q19 -90 37 -165q4 29 13 85.5t22 130.5t29 162.5t34 182.5l254 1217h246
l-446 -2032h-324l-282 1217q-20 89 -34.5 169t-24.5 141q-11 71 -19 132q-10 -53 -29 -166.5t-53 -271.5l-275 -1221h-319z" />
    <glyph glyph-name="X" unicode="X" horiz-adv-x="1622" 
d="M102 2015l267 41l405 -786l377 762h287l-496 -930l639 -1102h-295l-504 918l-475 -918h-291l607 1077z" />
    <glyph glyph-name="Y" unicode="Y" horiz-adv-x="1581" 
d="M20 1991l254 65l353 -700q10 -23 22.5 -49t25 -53t25 -54.5t24.5 -52.5q27 -59 54 -119q29 60 57 119q12 25 25 52.5t26.5 54.5l26.5 53t25 49l340 676h283l-660 -1241v-791h-258v807z" />
    <glyph glyph-name="Z" unicode="Z" horiz-adv-x="1503" 
d="M266 2032h1143v-213l-893 -1422q-25 -40 -46 -73.5t-38 -58.5q-19 -29 -35 -52h1008l-70 -213h-1233v188l914 1450q26 42 48 76.5t39 59.5q19 29 36 53h-963z" />
    <glyph glyph-name="bracketleft" unicode="[" horiz-adv-x="770" 
d="M594 1982h-291v-2265h291v-180h-512v2622h512v-177z" />
    <glyph glyph-name="backslash" unicode="\" horiz-adv-x="1106" 
d="M8 2138l193 74l889 -2265l-193 -74z" />
    <glyph glyph-name="bracketright" unicode="]" horiz-adv-x="762" 
d="M176 2159h504v-2622h-504v180h287v2265h-287v177z" />
    <glyph glyph-name="asciicircum" unicode="^" horiz-adv-x="1962" 
d="M893 2085h176l660 -1249h-222l-524 1007l-528 -1007h-222z" />
    <glyph glyph-name="underscore" unicode="_" horiz-adv-x="1458" 
d="M0 -221h1458v-148h-1458v148z" />
    <glyph glyph-name="grave" unicode="`" horiz-adv-x="999" 
d="M852 1802l-143 -106l-586 278l102 197z" />
    <glyph glyph-name="a" unicode="a" horiz-adv-x="1495" 
d="M193 1307q148 102 302.5 151t315.5 49q132 0 215.5 -35.5t131.5 -97t65.5 -145t17.5 -180.5v-656q0 -68 4.5 -113.5t17.5 -77t35.5 -52.5t57.5 -39l-115 -168q-77 24 -129.5 81.5t-71.5 135.5q-54 -53 -103.5 -90t-100 -61t-105 -35t-117.5 -11q-137 0 -228 37t-146 96.5
t-78 134.5t-23 150q0 124 52.5 222.5t152.5 166t244.5 103.5t329.5 36q24 0 43.5 -0.5t33.5 -1.5q16 -1 29 -2v103q0 63 -6 119.5t-30.5 99t-74 67.5t-135.5 25q-62 0 -129 -15.5t-130.5 -40t-117.5 -55t-90 -61.5zM1016 745q-25 7 -52.5 8t-58.5 1q-141 0 -238 -24
t-157 -69.5t-86.5 -111t-26.5 -148.5q0 -133 63.5 -201.5t190.5 -68.5q57 0 112 16.5t103 46.5t86.5 73.5t63.5 97.5v380z" />
    <glyph glyph-name="b" unicode="b" horiz-adv-x="1606" 
d="M201 0q31 70 38 143t7 156v1803l229 45v-844q54 54 104 91t100 60.5t102.5 34t111.5 10.5q132 0 237.5 -52t179 -148.5t113 -233.5t39.5 -307q0 -178 -42 -324t-118.5 -249.5t-184.5 -160.5t-240 -57q-57 0 -116 15.5t-113 42t-99 61.5t-74 74q-3 -23 -5.5 -42.5t-7 -38
t-11 -37.5t-17.5 -42h-233zM475 344q29 -37 70 -69t89 -56t100.5 -37.5t105.5 -13.5q37 0 75.5 9.5t74.5 26.5t66 41.5t50 53.5q18 29 36.5 71t33 100t23.5 132t9 168q0 59 -6 121t-21 120.5t-41.5 110t-66.5 89.5t-96.5 60.5t-132.5 22.5q-54 0 -107 -15t-101 -41t-89 -61
t-72 -75v-758z" />
    <glyph glyph-name="c" unicode="c" horiz-adv-x="1335" 
d="M1102 1151q-31 43 -65 75.5t-74.5 54t-90 32t-110.5 10.5q-111 0 -183.5 -47t-115.5 -123.5t-60.5 -173.5t-17.5 -197q0 -65 5 -137t19.5 -141.5t41.5 -132.5t70.5 -111t106.5 -76t150 -28q127 0 213.5 45t138.5 123l119 -140q-83 -111 -203 -166t-272 -55t-270 54.5
t-199 155.5t-123.5 246t-42.5 326q0 178 43 320t124 241t196.5 152t259.5 53q163 0 278.5 -60t192.5 -161z" />
    <glyph glyph-name="d" unicode="d" horiz-adv-x="1606" 
d="M1352 2146v-1671q0 -95 1 -162.5t6 -117t16.5 -85t32.5 -66.5l-228 -77q-12 30 -22 62q-8 27 -16.5 60t-11.5 63q-40 -46 -82 -78.5t-89.5 -53.5t-101 -30.5t-116.5 -9.5q-143 0 -255 50t-189 145.5t-117.5 233t-40.5 312.5q0 155 38.5 295.5t113.5 247t185 169t253 62.5
q124 0 226 -47.5t167 -140.5v794zM1118 1155q-26 37 -62.5 65t-79 47.5t-89 29.5t-92.5 10q-116 0 -193 -50t-123.5 -131.5t-66 -185t-19.5 -211.5q0 -59 4.5 -123.5t18 -126.5t37.5 -117.5t64 -97.5t97 -67t136 -25q54 0 109 12.5t104.5 37.5t90 62.5t64.5 88.5v782z" />
    <glyph glyph-name="e" unicode="e" horiz-adv-x="1495" 
d="M844 160q108 0 203.5 40t173.5 111l73 -159q-102 -90 -227.5 -137.5t-267.5 -47.5q-154 0 -275.5 53.5t-206 155t-129.5 246.5t-45 328q0 99 18.5 194t54 179t88 154.5t121.5 121.5t153.5 79.5t183.5 28.5q110 0 195 -28.5t148 -79.5t105.5 -123t68.5 -159t37 -186.5
t11 -205.5v-33h-917q0 -121 22 -219.5t73 -168t134 -107t205 -37.5zM750 1327q-158 0 -244.5 -117t-95.5 -346h671q0 91 -13 174.5t-49.5 147.5t-101 102.5t-167.5 38.5z" />
    <glyph glyph-name="f" unicode="f" horiz-adv-x="864" 
d="M946 1888q-21 17 -45 29.5t-52.5 20.5t-62.5 12t-77 4q-99 0 -150 -65.5t-51 -192.5v-230h414l-70 -172h-344v-1294h-242v1294h-196v172h196v230q0 104 28 185.5t82 137.5t132.5 85.5t179.5 29.5q46 0 87 -3.5t79 -12.5t74 -24t71 -38z" />
    <glyph glyph-name="g" unicode="g" horiz-adv-x="1564" 
d="M1229 1413q49 0 89 8.5t72 22t56 31.5t41 36l86 -151q-50 -43 -113.5 -70.5t-153.5 -27.5q-18 0 -39 0.5t-43 3.5q47 -53 69 -116t22 -134q0 -103 -39.5 -189t-109 -147.5t-165.5 -96t-210 -34.5q-151 -56 -226 -95.5t-75 -76.5q0 -34 31.5 -52t87.5 -18h345
q241 0 356 -98.5t115 -302.5q0 -115 -50.5 -200.5t-135 -142t-195.5 -84.5t-232 -28q-175 0 -298 25t-200 75t-112.5 125.5t-35.5 176.5v58l264 56v-82q0 -57 15.5 -98t42.5 -69.5t62 -45.5t75 -26t81.5 -12t80.5 -3q89 0 161 18t122.5 50t77.5 77.5t27 100.5q0 72 -26 119
t-69.5 74.5t-99.5 38t-116 10.5h-350q-129 0 -203.5 54t-74.5 155q0 44 13.5 80t44.5 66t82 55.5t126 48.5q-74 23 -135 65t-105 98.5t-68 123.5t-24 139q0 110 46 201t124.5 156.5t184 101.5t225.5 36q56 0 101 -6.5t83.5 -16t73 -20.5t69 -20.5t71.5 -16t81 -6.5z
M1050 1012q0 150 -80 220.5t-228 70.5q-68 0 -125.5 -18t-99.5 -54.5t-66 -92t-24 -130.5q0 -72 24.5 -126.5t68 -91t102.5 -55t128 -18.5q66 0 121 18.5t95 55t62 92t22 129.5z" />
    <glyph glyph-name="h" unicode="h" horiz-adv-x="1597" 
d="M246 2102l237 45v-595q0 -18 -0.5 -40t-1 -46.5t-1 -49.5t-1.5 -49q-2 -55 -4 -114q51 45 106 89t115.5 79t125.5 56.5t136 21.5q95 0 173 -27t133.5 -79.5t85.5 -130t30 -177.5v-1085h-237v1012q0 58 -12 109.5t-39.5 89.5t-73.5 60.5t-113 22.5q-54 0 -108 -19.5
t-107.5 -55t-105.5 -84.5t-101 -107v-1028h-237v2102z" />
    <glyph glyph-name="i" unicode="i" horiz-adv-x="733" 
d="M250 1462l229 37v-1499h-229v1462zM197 1888q0 35 13 67t35.5 56t53 38.5t66.5 14.5q35 0 66.5 -13.5t55 -36.5t37 -53.5t13.5 -64.5q0 -37 -13.5 -68.5t-37 -54.5t-55 -36t-66.5 -13q-36 0 -66.5 13t-53 35.5t-35.5 52t-13 63.5z" />
    <glyph glyph-name="j" unicode="j" horiz-adv-x="737" 
d="M254 1454l229 49v-1474q0 -103 -13 -192.5t-52 -166t-109.5 -140.5t-185.5 -116l-78 160q72 32 114 74t63 99t26.5 131t5.5 171v1405zM197 1888q0 35 13 67t35.5 56t53 38.5t66.5 14.5q35 0 66.5 -13.5t55 -36.5t37 -53.5t13.5 -64.5q0 -37 -13.5 -68.5t-37 -54.5
t-55 -36t-66.5 -13q-36 0 -66.5 13t-53 35.5t-35.5 52t-13 63.5z" />
    <glyph glyph-name="k" unicode="k" horiz-adv-x="1470" 
d="M246 2104l229 45v-2149h-229v2104zM1057 1466h291l-590 -618l684 -803l-254 -65l-705 868z" />
    <glyph glyph-name="l" unicode="l" horiz-adv-x="733" 
d="M246 2097l229 45v-1798q0 -79 8.5 -136.5t19.5 -95.5q12 -45 29 -75l-221 -62q-19 32 -33 72q-12 34 -22 78.5t-10 95.5v1876z" />
    <glyph glyph-name="m" unicode="m" horiz-adv-x="2310" 
d="M250 1139q0 71 -10 124t-21 89q-14 42 -31 73l234 91q17 -36 30 -75q11 -33 21 -74t10 -81q37 42 87.5 81.5t107.5 70.5t116.5 50t114.5 19t108.5 -16.5t99 -48t81 -77t55.5 -103.5q54 57 111 102t115.5 77t117 49t115.5 17q83 0 150.5 -29.5t115 -82.5t73.5 -126.5
t26 -162.5v-1106h-234v1085q0 106 -46 162t-142 56q-49 0 -97 -18.5t-94.5 -50t-93 -73.5t-92.5 -88v-1073h-229v1065q0 51 -8 93t-30 72t-59.5 47t-95.5 17q-43 0 -85.5 -11t-87.5 -35t-95.5 -61t-108.5 -89v-1098h-229v1139v0z" />
    <glyph glyph-name="n" unicode="n" horiz-adv-x="1581" 
d="M250 1135q0 78 -9 135.5t-20 95.5q-12 45 -28 76l225 61q16 -28 28 -64q11 -31 20 -75.5t9 -101.5q117 113 227.5 175t227.5 62q80 0 154.5 -26t132 -74t92 -116t34.5 -153v-1130h-237v1024q0 58 -9.5 109t-34.5 89t-70 59.5t-115 21.5q-43 0 -94.5 -20.5t-103.5 -53.5
t-102 -75t-90 -85v-1069h-237v1135v0z" />
    <glyph glyph-name="o" unicode="o" horiz-adv-x="1589" 
d="M147 745q0 178 43 320t124 241t196.5 152t259.5 53q113 0 203.5 -30t160.5 -83.5t120.5 -127.5t83 -162.5t48 -189t15.5 -205.5q0 -185 -45 -325t-126.5 -234.5t-195.5 -142.5t-252 -48q-152 0 -270 54.5t-199 155.5t-123.5 246t-42.5 326zM1155 692q0 63 -4.5 134.5
t-18.5 142t-40.5 134.5t-69 113t-104.5 78t-148 29q-112 0 -185 -47t-115.5 -123.5t-59.5 -173.5t-17 -197q0 -65 5 -137t19.5 -141.5t41.5 -132.5t70.5 -111t106.5 -76t150 -28q72 0 127 21.5t96 59t69 89t45 111t24.5 124.5t7.5 131z" />
    <glyph glyph-name="p" unicode="p" horiz-adv-x="1610" 
d="M250 1151q0 83 -5.5 140t-11.5 92q-7 41 -16 67l213 61q10 -20 18 -53q7 -28 13 -71t6 -105q90 108 200 162.5t234 54.5q141 0 245.5 -59t172.5 -162t101.5 -242t33.5 -299q0 -90 -14 -182.5t-43 -178.5t-74.5 -161t-109.5 -131t-146.5 -88.5t-185.5 -32.5
q-115 0 -220 44t-186 124v-700l-225 -45v1765zM475 344q84 -93 176.5 -140.5t188.5 -47.5q74 0 130 24t96.5 65t68 95.5t43.5 116t23 126t7 126.5q0 55 -2.5 120t-13.5 130t-32.5 125.5t-59.5 107t-94.5 74.5t-137.5 28q-111 0 -208.5 -53t-184.5 -156v-741z" />
    <glyph glyph-name="q" unicode="q" horiz-adv-x="1602" 
d="M1356 -565l-226 -49v745q-80 -80 -185 -124t-220 -44q-103 0 -185 32.5t-145.5 88.5t-109.5 131t-75.5 161t-43.5 178.5t-14 182.5q0 160 33.5 299t102 242t173.5 162t248 59q120 0 230.5 -54.5t203.5 -162.5q-2 51 2 86t10 57q6 26 16 41h230q-13 -19 -23 -51
q-8 -27 -15 -69.5t-7 -104.5v-1806zM1130 1085q-86 103 -183.5 156t-209.5 53q-80 0 -136 -28t-94 -74.5t-60 -107t-33 -125.5t-14 -130t-3 -120q0 -62 7 -126.5t23.5 -126t43.5 -116t68 -95.5t97 -65t130 -24q96 0 188.5 47.5t175.5 140.5v741z" />
    <glyph glyph-name="r" unicode="r" horiz-adv-x="1016" 
d="M250 1135q0 80 -8.5 138.5t-18.5 96.5q-11 45 -26 76l233 61q16 -34 27 -73q10 -33 17.5 -76.5t4.5 -91.5q40 57 93 102t111.5 77t120 49t118.5 17q14 0 28 -2t26 -4l28 -6l-95 -237q-12 3 -31 7.5t-34 4.5q-69 0 -135 -27t-117 -74.5t-82 -113t-31 -141.5v-918h-229
v1135v0z" />
    <glyph glyph-name="s" unicode="s" horiz-adv-x="1335" 
d="M688 1524q57 0 119 -8t123 -23.5t118 -37.5t103 -50l-98 -160q-51 23 -97 41.5t-91 31t-90.5 19t-94.5 6.5q-62 0 -112.5 -17.5t-86.5 -49.5t-55.5 -76t-19.5 -98q0 -86 47.5 -137t160.5 -76l193 -41q111 -25 186.5 -62.5t122.5 -89t67.5 -117t20.5 -145.5
q0 -106 -40.5 -194t-113 -151.5t-174.5 -98.5t-225 -35q-71 0 -142.5 11.5t-141 32.5t-134.5 49.5t-122 62.5l110 159q57 -35 111 -60.5t107.5 -42t109 -24.5t115.5 -8q67 0 121.5 17.5t93 50.5t59 80t20.5 106q0 49 -11.5 88.5t-38.5 70t-71 52t-108 35.5l-192 41
q-183 40 -276 142.5t-93 254.5q0 100 38 183t107 142.5t164.5 92.5t210.5 33z" />
    <glyph glyph-name="t" unicode="t" horiz-adv-x="950" 
d="M889 1466l-74 -172h-311v-946q0 -62 8.5 -104t29.5 -68t56.5 -37.5t89.5 -11.5q50 0 89.5 8.5t70.5 24.5l61 -135q-59 -31 -139 -50.5t-164 -19.5q-52 0 -102 9t-90 28q-78 40 -111 111.5t-33 183.5v1007h-192v172h192v377l242 49v-426h377z" />
    <glyph glyph-name="u" unicode="u" horiz-adv-x="1614" 
d="M238 1446l229 49v-1049q0 -74 11 -129.5t40.5 -93.5t81.5 -57t133 -19q54 0 107.5 20t102 57t90.5 89t73 117v1016l229 49v-1073q0 -75 5 -126t17 -87t32 -62.5t49 -52.5l-148 -155q-37 30 -63.5 59.5t-45.5 60.5t-31 64t-20 70q-86 -114 -201 -178t-265 -64
q-97 0 -175 29t-133.5 83t-86 130.5t-31.5 171.5v1081z" />
    <glyph glyph-name="v" unicode="v" horiz-adv-x="1376" 
d="M16 1454l234 53l323 -958q15 -47 31 -100t30 -98q16 -53 30 -105h4q14 51 30 104q14 45 30.5 98t33.5 101l315 917h242l-549 -1482h-225z" />
    <glyph glyph-name="w" unicode="w" horiz-adv-x="2036" 
d="M66 1454l229 53l217 -954q12 -51 22 -98t17 -84q8 -43 14 -80h13q11 45 22 91q10 39 21 84.5t22 86.5l246 913h254l241 -913q8 -31 20 -78t23 -92q13 -53 27 -109h8q12 61 23 116q9 47 18.5 92t16.5 67l204 917h242l-401 -1478h-226l-282 995l-49 201h-9l-45 -201
l-282 -995h-213z" />
    <glyph glyph-name="x" unicode="x" horiz-adv-x="1319" 
d="M90 1442l242 49l332 -512l294 487h271l-455 -655l565 -811h-282l-393 623l-402 -623h-270l549 811z" />
    <glyph glyph-name="y" unicode="y" horiz-adv-x="1376" 
d="M291 1511l278 -925q7 -26 16 -57t18.5 -63.5t18.5 -65.5t18 -63q20 -71 40 -144h8q23 77 44 149q9 31 18.5 64t19 65t18 61.5t15.5 53.5l262 880h266l-508 -1519q-37 -111 -79 -202.5t-96.5 -162t-126.5 -118t-169 -70.5l-69 155q70 23 121 55t90 83.5t69.5 128
t59.5 188.5l-86 -16l-471 1450z" />
    <glyph glyph-name="z" unicode="z" horiz-adv-x="1257" 
d="M209 1466h926v-184l-766 -1106h786l-78 -176h-987v176l803 1110h-758z" />
    <glyph glyph-name="braceleft" unicode="{" horiz-adv-x="1008" 
d="M885 1982h-176q-48 0 -76.5 -22.5t-43.5 -57.5t-19.5 -78.5t-4.5 -86.5v-492q0 -100 -30.5 -171.5t-72 -119t-84 -72t-67.5 -30.5v-4q25 -3 67.5 -24.5t84 -68t72 -121t30.5 -183.5v-484q0 -45 4.5 -89.5t19.5 -80t43.5 -58t76.5 -22.5h176v-180h-221q-56 0 -111.5 27
t-100 77t-72.5 122.5t-28 162.5v484q0 78 -22.5 142.5t-58.5 111t-81.5 72.5t-91.5 26v176q46 0 91.5 25.5t81.5 71.5t58.5 110t22.5 141v488q0 90 28.5 161.5t73.5 121t100.5 76t109.5 26.5h221v-177z" />
    <glyph glyph-name="bar" unicode="|" horiz-adv-x="668" 
d="M229 2232h209v-2285h-209v2285z" />
    <glyph glyph-name="braceright" unicode="}" horiz-adv-x="1016" 
d="M119 2154h225q52 0 107 -26t100.5 -75.5t74.5 -121t29 -162.5v-487q0 -77 22 -141t57.5 -110t81 -71.5t93.5 -25.5v-176q-48 0 -93.5 -26t-81 -72.5t-57.5 -111t-22 -142.5v-484q0 -90 -28 -162.5t-72 -122.5t-100 -77t-111 -27h-225v180h180q45 0 72.5 22.5t43.5 58
t21.5 80t5.5 89.5v483q0 73 14 130t36.5 100.5t50.5 74.5t56.5 51t54 30t42.5 12v4q-17 4 -42.5 16t-54 33.5t-56.5 53t-50.5 74t-36.5 96t-14 120.5v492q0 43 -5.5 86.5t-21.5 78.5t-43.5 57.5t-72.5 22.5h-180v176z" />
    <glyph glyph-name="asciitilde" unicode="~" horiz-adv-x="1962" 
d="M1651 958q-28 -49 -62.5 -96t-78.5 -84t-98.5 -59.5t-121.5 -22.5q-60 0 -113 15t-102.5 37t-97.5 48.5t-99 48.5t-107 37t-120 15q-51 0 -85.5 -12.5t-59.5 -35t-43.5 -54.5t-36.5 -70l-115 106q26 45 60 91.5t77.5 84.5t99 62.5t124.5 24.5q59 0 112.5 -15t104 -37
t99.5 -48.5t100.5 -48.5t106 -37t116.5 -15q49 0 84.5 13.5t62.5 36.5t47.5 53.5t38.5 64.5z" />
    <glyph glyph-name="saraileftthai" 
d="M-692 1897h-1008l86 189h922v-189z" />
    <glyph glyph-name="saraileftthai" unicode="&#xf701;" 
d="M-692 1897h-1008l86 189h922v-189z" />
    <glyph glyph-name="saraiileftthai" 
d="M-696 1893h-1008l86 189h696v200l226 41v-430z" />
    <glyph glyph-name="saraiileftthai" unicode="&#xf702;" 
d="M-696 1893h-1008l86 189h696v200l226 41v-430z" />
    <glyph glyph-name="saraueleftthai" 
d="M-1016 2143q0 -37 26.5 -61.5t63.5 -24.5t61.5 24.5t24.5 61.5t-24.5 61.5t-61.5 24.5t-63.5 -24.5t-26.5 -61.5zM-1163 2143q-3 49 15 92t51 75.5t77.5 51t93.5 18.5t92.5 -18.5t75.5 -51t51 -75.5t19 -92t-19 -93.5t-51 -78.5t-75.5 -54t-92.5 -20h-803l87 189h491
q-6 9 -9 26.5t-3 30.5z" />
    <glyph glyph-name="saraueleftthai" unicode="&#xf703;" 
d="M-1016 2143q0 -37 26.5 -61.5t63.5 -24.5t61.5 24.5t24.5 61.5t-24.5 61.5t-61.5 24.5t-63.5 -24.5t-26.5 -61.5zM-1163 2143q-3 49 15 92t51 75.5t77.5 51t93.5 18.5t92.5 -18.5t75.5 -51t51 -75.5t19 -92t-19 -93.5t-51 -78.5t-75.5 -54t-92.5 -20h-803l87 189h491
q-6 9 -9 26.5t-3 30.5z" />
    <glyph glyph-name="saraueeleftthai" 
d="M-1054 2086h132v200l226 41v-430h-1065l86 189h392v200l229 41v-241z" />
    <glyph glyph-name="saraueeleftthai" unicode="&#xf704;" 
d="M-1054 2086h132v200l226 41v-430h-1065l86 189h392v200l229 41v-241z" />
    <glyph glyph-name="maieklowleftthai" 
d="M-834 1893h-216v477l216 40v-517z" />
    <glyph glyph-name="maieklowleftthai" unicode="&#xf705;" 
d="M-834 1893h-216v477l216 40v-517z" />
    <glyph glyph-name="maitholowleftthai" 
d="M-1376 2429q15 -5 41.5 -18t51.5 -37t43.5 -61t18.5 -89q0 -15 -1.5 -33.5t-6 -36.5t-13.5 -34.5t-24 -26.5q19 0 35 -2t35 -2q64 0 127.5 9.5t121.5 29t108.5 49.5t88.5 71l148 -167q-69 -59 -140 -95t-146.5 -56.5t-158 -28.5t-174.5 -9q-55 0 -116 1t-117 7l-62 181
q41 3 63.5 23.5t22.5 70.5q0 20 -7.5 39t-20.5 35.5t-29 29.5t-33 19z" />
    <glyph glyph-name="maitholowleftthai" unicode="&#xf706;" 
d="M-1376 2429q15 -5 41.5 -18t51.5 -37t43.5 -61t18.5 -89q0 -15 -1.5 -33.5t-6 -36.5t-13.5 -34.5t-24 -26.5q19 0 35 -2t35 -2q64 0 127.5 9.5t121.5 29t108.5 49.5t88.5 71l148 -167q-69 -59 -140 -95t-146.5 -56.5t-158 -28.5t-174.5 -9q-55 0 -116 1t-117 7l-62 181
q41 3 63.5 23.5t22.5 70.5q0 20 -7.5 39t-20.5 35.5t-29 29.5t-33 19z" />
    <glyph glyph-name="maitrilowleftthai" 
d="M-1227 2309q46 59 100 96.5t128 37.5q45 0 81 -16.5t61.5 -43.5t39 -62t13.5 -73q0 -45 -17.5 -90.5t-55.5 -76.5q-11 -8 -15 -10l-10 -5q32 0 62 11.5t55.5 30t45.5 41.5t32 47l123 -111q-34 -52 -75 -87t-96 -56t-129 -30t-174 -9l-50 152q16 1 38 14.5t41.5 33.5
t33 45.5t13.5 52.5q0 33 -18.5 50t-43.5 17q-41 0 -90.5 -39t-92.5 -114q-77 145 -174 145q-17 0 -30 -6.5t-21.5 -17t-12.5 -22.5t-4 -23q0 -35 16 -60.5t40 -42.5t52 -27.5t51 -16.5l-32 -163q-62 0 -117.5 24t-98 65.5t-67.5 96.5t-25 118q0 53 19.5 99t52.5 80.5
t77 54.5t93 20q39 0 67 -10.5t49 -28.5t36 -41.5t29 -49.5z" />
    <glyph glyph-name="maitrilowleftthai" unicode="&#xf707;" 
d="M-1227 2309q46 59 100 96.5t128 37.5q45 0 81 -16.5t61.5 -43.5t39 -62t13.5 -73q0 -45 -17.5 -90.5t-55.5 -76.5q-11 -8 -15 -10l-10 -5q32 0 62 11.5t55.5 30t45.5 41.5t32 47l123 -111q-34 -52 -75 -87t-96 -56t-129 -30t-174 -9l-50 152q16 1 38 14.5t41.5 33.5
t33 45.5t13.5 52.5q0 33 -18.5 50t-43.5 17q-41 0 -90.5 -39t-92.5 -114q-77 145 -174 145q-17 0 -30 -6.5t-21.5 -17t-12.5 -22.5t-4 -23q0 -35 16 -60.5t40 -42.5t52 -27.5t51 -16.5l-32 -163q-62 0 -117.5 24t-98 65.5t-67.5 96.5t-25 118q0 53 19.5 99t52.5 80.5
t77 54.5t93 20q39 0 67 -10.5t49 -28.5t36 -41.5t29 -49.5z" />
    <glyph glyph-name="maichattawalowleftthai" 
d="M-1290 2282h233v172l226 41v-213h241v-164h-241v-221h-226v221h-233v164z" />
    <glyph glyph-name="maichattawalowleftthai" unicode="&#xf708;" 
d="M-1290 2282h233v172l226 41v-213h241v-164h-241v-221h-226v221h-233v164z" />
    <glyph glyph-name="thanthakhatlowleftthai" 
d="M-647 2371q-35 -14 -64.5 -31.5t-50.5 -42t-33 -57.5t-12 -78q0 -52 14.5 -105.5t38.5 -103.5l-245 -45q-19 47 -32 100.5t-13 112.5q0 60 19 117.5t58 107.5t99 91.5t143 68.5z" />
    <glyph glyph-name="thanthakhatlowleftthai" unicode="&#xf709;" 
d="M-647 2371q-35 -14 -64.5 -31.5t-50.5 -42t-33 -57.5t-12 -78q0 -52 14.5 -105.5t38.5 -103.5l-245 -45q-19 47 -32 100.5t-13 112.5q0 60 19 117.5t58 107.5t99 91.5t143 68.5z" />
    <glyph glyph-name="maieklowrightthai" 
d="M-247 1893h-216v477l216 40v-517z" />
    <glyph glyph-name="maieklowrightthai" unicode="&#xf70a;" 
d="M-247 1893h-216v477l216 40v-517z" />
    <glyph glyph-name="maitholowrightthai" 
d="M-963 2431q16 -6 42.5 -18.5t52.5 -36.5t45 -61.5t19 -92.5q0 -13 -2 -31t-6.5 -36t-12 -34t-18.5 -26h73q65 0 127 6t120.5 21t112.5 42t104 69l151 -158q-62 -57 -135.5 -91.5t-155.5 -53t-171.5 -25.5t-183.5 -8h-63t-68.5 1t-67.5 2.5t-61 4.5l-53 171q20 3 37 9
t29 17t19 28t7 42q0 20 -4.5 40t-16 36.5t-31 29t-48.5 18.5z" />
    <glyph glyph-name="maitholowrightthai" unicode="&#xf70b;" 
d="M-963 2431q16 -6 42.5 -18.5t52.5 -36.5t45 -61.5t19 -92.5q0 -13 -2 -31t-6.5 -36t-12 -34t-18.5 -26h73q65 0 127 6t120.5 21t112.5 42t104 69l151 -158q-62 -57 -135.5 -91.5t-155.5 -53t-171.5 -25.5t-183.5 -8h-63t-68.5 1t-67.5 2.5t-61 4.5l-53 171q20 3 37 9
t29 17t19 28t7 42q0 20 -4.5 40t-16 36.5t-31 29t-48.5 18.5z" />
    <glyph glyph-name="maitrilowrightthai" 
d="M-861 2347q26 33 54 60t59.5 46.5t67 30.5t77.5 11q51 0 91.5 -17t69.5 -46t44.5 -66.5t15.5 -79.5q0 -49 -19.5 -99.5t-62.5 -84.5q-12 -10 -17 -12t-12 -5q37 0 71 12.5t63 33t51.5 46.5t36.5 52l139 -123q-39 -57 -85 -95.5t-108.5 -62t-146 -33.5t-197.5 -10l-57 168
q18 1 43.5 16t48.5 38t39 52t16 58q0 37 -20.5 55.5t-48.5 18.5q-47 0 -105.5 -44.5t-107.5 -127.5q-44 80 -96 121.5t-105 41.5q-20 0 -34.5 -7.5t-24.5 -19t-14.5 -25t-4.5 -25.5q0 -39 19 -67t47 -47.5t60.5 -31.5t58.5 -18l-37 -180q-69 0 -132 26.5t-111 72
t-76.5 106.5t-28.5 130q0 58 22 108.5t59.5 87.5t87.5 58t105 21q45 0 76.5 -11.5t55 -31t41 -46t32.5 -55.5z" />
    <glyph glyph-name="maitrilowrightthai" unicode="&#xf70c;" 
d="M-861 2347q26 33 54 60t59.5 46.5t67 30.5t77.5 11q51 0 91.5 -17t69.5 -46t44.5 -66.5t15.5 -79.5q0 -49 -19.5 -99.5t-62.5 -84.5q-12 -10 -17 -12t-12 -5q37 0 71 12.5t63 33t51.5 46.5t36.5 52l139 -123q-39 -57 -85 -95.5t-108.5 -62t-146 -33.5t-197.5 -10l-57 168
q18 1 43.5 16t48.5 38t39 52t16 58q0 37 -20.5 55.5t-48.5 18.5q-47 0 -105.5 -44.5t-107.5 -127.5q-44 80 -96 121.5t-105 41.5q-20 0 -34.5 -7.5t-24.5 -19t-14.5 -25t-4.5 -25.5q0 -39 19 -67t47 -47.5t60.5 -31.5t58.5 -18l-37 -180q-69 0 -132 26.5t-111 72
t-76.5 106.5t-28.5 130q0 58 22 108.5t59.5 87.5t87.5 58t105 21q45 0 76.5 -11.5t55 -31t41 -46t32.5 -55.5z" />
    <glyph glyph-name="maichattawalowrightthai" 
d="M-736 2277h258v172l229 41v-213h262v-164h-262v-217h-229v217h-258v164z" />
    <glyph glyph-name="maichattawalowrightthai" unicode="&#xf70d;" 
d="M-736 2277h258v172l229 41v-213h262v-164h-262v-217h-229v217h-258v164z" />
    <glyph glyph-name="thanthakhatlowrightthai" 
d="M-137 2350q-35 -14 -64.5 -31.5t-50.5 -42t-33 -57.5t-12 -78q0 -52 14 -105.5t39 -103.5l-246 -45q-18 47 -31.5 100.5t-13.5 112.5q0 60 19 117.5t58 107.5t99.5 91.5t143.5 68.5z" />
    <glyph glyph-name="thanthakhatlowrightthai" unicode="&#xf70e;" 
d="M-137 2350q-35 -14 -64.5 -31.5t-50.5 -42t-33 -57.5t-12 -78q0 -52 14 -105.5t39 -103.5l-246 -45q-18 47 -31.5 100.5t-13.5 112.5q0 60 19 117.5t58 107.5t99.5 91.5t143.5 68.5z" />
    <glyph glyph-name="maihanakatleftthai" 
d="M-1064 2243q20 -44 52 -78q27 -29 69 -53t102 -24h837l-74 -190h-809q-53 0 -96.5 10t-79.5 26t-64 36.5t-49 42.5q-50 50 -78 115z" />
    <glyph glyph-name="maihanakatleftthai" unicode="&#xf710;" 
d="M-1064 2243q20 -44 52 -78q27 -29 69 -53t102 -24h837l-74 -190h-809q-53 0 -96.5 10t-79.5 26t-64 36.5t-49 42.5q-50 50 -78 115z" />
    <glyph glyph-name="nikhahitleftthai" 
d="M-1189 2111q0 57 21.5 107t59 87.5t88 59.5t107.5 22t107 -22t87.5 -59.5t59.5 -87.5t22 -107t-22 -107.5t-59.5 -88t-87.5 -59t-107 -21.5t-107.5 21.5t-88 59t-59 88t-21.5 107.5zM-1030 2112q0 -24 9.5 -45.5t25.5 -37.5t37.5 -25.5t45.5 -9.5t45.5 9.5t37.5 25.5
t25.5 37.5t9.5 45.5t-9.5 45.5t-25.5 37.5t-37.5 25.5t-45.5 9.5t-45.5 -9.5t-37.5 -25.5t-25.5 -37.5t-9.5 -45.5z" />
    <glyph glyph-name="nikhahitleftthai" unicode="&#xf711;" 
d="M-1189 2111q0 57 21.5 107t59 87.5t88 59.5t107.5 22t107 -22t87.5 -59.5t59.5 -87.5t22 -107t-22 -107.5t-59.5 -88t-87.5 -59t-107 -21.5t-107.5 21.5t-88 59t-59 88t-21.5 107.5zM-1030 2112q0 -24 9.5 -45.5t25.5 -37.5t37.5 -25.5t45.5 -9.5t45.5 9.5t37.5 25.5
t25.5 37.5t9.5 45.5t-9.5 45.5t-25.5 37.5t-37.5 25.5t-45.5 9.5t-45.5 -9.5t-37.5 -25.5t-25.5 -37.5t-9.5 -45.5z" />
    <glyph glyph-name="maitaikhuleftthai" 
d="M-1344 1861q-84 0 -143.5 33t-97 81.5t-55 104.5t-17.5 103q0 80 27 145.5t74.5 112t113 72t142.5 25.5h460q16 0 34.5 1.5t38 5.5t38.5 11.5t37 20.5l86 -133q-24 -19 -48 -31t-47 -18.5t-43.5 -9t-37.5 -2.5h-527q-17 0 -46 -9t-57 -30.5t-48.5 -58.5t-20.5 -94
q0 -11 4 -33t15 -45t30.5 -43.5t49.5 -28.5l199 178l175 -160q9 -8 21.5 -17.5t26.5 -16t29 -8t28 6.5q17 10 21 27.5t0 36.5t-12.5 38t-17.5 33l152 62q24 -54 32.5 -91.5t10.5 -58.5q3 -60 -21 -112.5t-72 -76.5q-45 -23 -86 -27.5t-79.5 5.5t-74.5 33.5t-71 56.5l-64 63z
" />
    <glyph glyph-name="maitaikhuleftthai" unicode="&#xf712;" 
d="M-1344 1861q-84 0 -143.5 33t-97 81.5t-55 104.5t-17.5 103q0 80 27 145.5t74.5 112t113 72t142.5 25.5h460q16 0 34.5 1.5t38 5.5t38.5 11.5t37 20.5l86 -133q-24 -19 -48 -31t-47 -18.5t-43.5 -9t-37.5 -2.5h-527q-17 0 -46 -9t-57 -30.5t-48.5 -58.5t-20.5 -94
q0 -11 4 -33t15 -45t30.5 -43.5t49.5 -28.5l199 178l175 -160q9 -8 21.5 -17.5t26.5 -16t29 -8t28 6.5q17 10 21 27.5t0 36.5t-12.5 38t-17.5 33l152 62q24 -54 32.5 -91.5t10.5 -58.5q3 -60 -21 -112.5t-72 -76.5q-45 -23 -86 -27.5t-79.5 5.5t-74.5 33.5t-71 56.5l-64 63z
" />
    <glyph glyph-name="maiekupperleftthai" 
d="M-690 2552h-216v372l216 40v-412z" />
    <glyph glyph-name="maiekupperleftthai" unicode="&#xf713;" 
d="M-690 2552h-216v372l216 40v-412z" />
    <glyph glyph-name="maithoupperleftthai" 
d="M-1018 3071q15 -5 41.5 -19t52 -39.5t44 -64.5t18.5 -94q0 -15 -1.5 -33t-6 -36t-13.5 -34.5t-24 -28.5h69q61 0 118.5 6t111.5 21.5t105 42t100 66.5l147 -136q-63 -55 -129.5 -88t-140 -51.5t-155 -26t-173.5 -10.5q-56 0 -110.5 1.5t-110.5 11.5l-62 163q38 7 56 28
t18 71q0 20 -7 38.5t-19 34.5t-27.5 28t-32.5 18z" />
    <glyph glyph-name="maithoupperleftthai" unicode="&#xf714;" 
d="M-1018 3071q15 -5 41.5 -19t52 -39.5t44 -64.5t18.5 -94q0 -15 -1.5 -33t-6 -36t-13.5 -34.5t-24 -28.5h69q61 0 118.5 6t111.5 21.5t105 42t100 66.5l147 -136q-63 -55 -129.5 -88t-140 -51.5t-155 -26t-173.5 -10.5q-56 0 -110.5 1.5t-110.5 11.5l-62 163q38 7 56 28
t18 71q0 20 -7 38.5t-19 34.5t-27.5 28t-32.5 18z" />
    <glyph glyph-name="maitriupperleftthai" 
d="M-944 2939q43 52 95 85t114 33q40 0 72.5 -14t55.5 -38t35.5 -55t12.5 -65q0 -17 -3 -39t-12 -44.5t-26 -43.5t-45 -36q40 6 71 13.5t58 23t52 41.5t52 69l115 -102q-38 -56 -84.5 -93.5t-106.5 -60.5t-135 -33t-170 -10l-41 139q15 3 34.5 14.5t37 28.5t29.5 38t14 42
q0 31 -12 48.5t-37 17.5q-37 0 -85 -34.5t-91 -96.5q-15 27 -36.5 50.5t-45 40.5t-47 26.5t-43.5 9.5q-37 0 -55.5 -20.5t-18.5 -45.5q0 -31 15.5 -55t38.5 -41t49.5 -26t48.5 -9l-29 -143q-60 0 -112.5 19.5t-91 55.5t-61 86.5t-22.5 112.5q0 48 18.5 88.5t50 70t73.5 46
t88 16.5q65 0 108.5 -32t71.5 -78z" />
    <glyph glyph-name="maitriupperleftthai" unicode="&#xf715;" 
d="M-944 2939q43 52 95 85t114 33q40 0 72.5 -14t55.5 -38t35.5 -55t12.5 -65q0 -17 -3 -39t-12 -44.5t-26 -43.5t-45 -36q40 6 71 13.5t58 23t52 41.5t52 69l115 -102q-38 -56 -84.5 -93.5t-106.5 -60.5t-135 -33t-170 -10l-41 139q15 3 34.5 14.5t37 28.5t29.5 38t14 42
q0 31 -12 48.5t-37 17.5q-37 0 -85 -34.5t-91 -96.5q-15 27 -36.5 50.5t-45 40.5t-47 26.5t-43.5 9.5q-37 0 -55.5 -20.5t-18.5 -45.5q0 -31 15.5 -55t38.5 -41t49.5 -26t48.5 -9l-29 -143q-60 0 -112.5 19.5t-91 55.5t-61 86.5t-22.5 112.5q0 48 18.5 88.5t50 70t73.5 46
t88 16.5q65 0 108.5 -32t71.5 -78z" />
    <glyph glyph-name="maichattawaupperleftthai" 
d="M-1184 2940h258v172l230 41v-213h262v-163h-262v-222h-230v222h-258v163z" />
    <glyph glyph-name="maichattawaupperleftthai" unicode="&#xf716;" 
d="M-1184 2940h258v172l230 41v-213h262v-163h-262v-222h-230v222h-258v163z" />
    <glyph glyph-name="thanthakhatupperleftthai" 
d="M-610 2905q-42 -17 -71.5 -40.5t-46.5 -57t-20.5 -80t7.5 -109.5q1 -9 5 -25.5t9.5 -36t13.5 -40t17 -37.5l-242 -41q-9 25 -15.5 54t-13.5 69q-11 67 -0.5 134.5t46.5 128t100.5 110.5t161.5 82z" />
    <glyph glyph-name="thanthakhatupperleftthai" unicode="&#xf717;" 
d="M-610 2905q-42 -17 -71.5 -40.5t-46.5 -57t-20.5 -80t7.5 -109.5q1 -9 5 -25.5t9.5 -36t13.5 -40t17 -37.5l-242 -41q-9 25 -15.5 54t-13.5 69q-11 67 -0.5 134.5t46.5 128t100.5 110.5t161.5 82z" />
    <glyph glyph-name="uni00A0" unicode="&#xa0;" horiz-adv-x="737" 
 />
    <glyph glyph-name="cent" unicode="&#xa2;" horiz-adv-x="1327" 
d="M770 425q82 0 140.5 15t100 39.5t70 55.5t49.5 63l119 -139q-71 -96 -167.5 -150.5t-217.5 -66.5v-242h-184v242q-131 15 -231.5 76t-169.5 161t-104.5 236.5t-35.5 304.5q0 164 37.5 298t107 232t170 157.5t226.5 74.5v214l184 36v-254q124 -19 214 -74.5t155 -138.5
l-131 -140q-25 32 -54 63t-68 55t-90 38.5t-118 14.5q-80 0 -140 -23.5t-103 -63.5t-71 -93.5t-44 -113.5t-22.5 -123t-6.5 -122q0 -60 3.5 -129.5t16 -140t37 -136t67.5 -115.5t106.5 -80.5t154.5 -30.5z" />
    <glyph glyph-name="sterling" unicode="&#xa3;" horiz-adv-x="1642" 
d="M184 197h303v774h-270v196h270v234q0 193 48.5 330.5t133.5 225.5t200 128.5t249 40.5q133 0 256 -48.5t219 -144.5l-155 -143q-68 67 -149 93t-179 26q-109 0 -181.5 -37t-116 -103.5t-61.5 -160t-18 -207.5v-234h479v-196h-479v-774h709l-90 -197h-1168v197z" />
    <glyph glyph-name="yen" unicode="&#xa5;" horiz-adv-x="1618" 
d="M508 1106l-455 893l266 49l320 -672q7 -17 18.5 -41t24 -52t26.5 -58t28 -59q32 -68 67 -142q34 72 66 139q13 28 27.5 58t28 58.5t25.5 53.5t21 43l311 647h274l-466 -917h430v-176h-521l-81 -144v-139h602v-176h-602v-471h-250v471h-557v176h557v156l-66 127h-491v176
h397z" />
    <glyph glyph-name="copyright" unicode="&#xa9;" horiz-adv-x="2359" 
d="M1475 1364q-26 36 -52.5 63.5t-58.5 45.5t-71 27.5t-89 9.5q-90 0 -147.5 -38.5t-89.5 -100.5t-44 -141t-12 -161q0 -52 3.5 -109.5t14.5 -113.5t31.5 -107.5t54.5 -90.5t83.5 -62t118.5 -23q103 0 174 38.5t116 105.5l111 -131q-71 -93 -173.5 -142.5t-227.5 -49.5
q-126 0 -225.5 46.5t-169 132t-106 207.5t-36.5 274q0 147 37.5 266.5t106.5 203.5t165.5 129.5t214.5 45.5q67 0 124.5 -15t107 -42t90.5 -64t74 -82zM87 1044q0 150 39 289t109.5 260t170 220.5t220.5 170t260 109.5t289 39t289 -39t260 -109.5t220.5 -170t170 -220.5
t109.5 -260t39 -289t-39 -289t-109.5 -260t-170 -220.5t-220.5 -170t-260 -109.5t-289 -39t-289 39t-260 109.5t-220.5 170t-170 220.5t-109.5 260t-39 289zM286 1044q0 -123 32 -236.5t89.5 -212t139 -180t180 -139t212 -89.5t236.5 -32t236.5 32t212 89.5t180 139t139 180
t89.5 212t32 236.5t-32 236.5t-89.5 212t-139 180t-180 139t-212 89.5t-236.5 32t-236.5 -32t-212 -89.5t-180 -139t-139 -180t-89.5 -212t-32 -236.5z" />
    <glyph glyph-name="guillemotleft" unicode="&#xab;" horiz-adv-x="1475" 
d="M1319 184l-164 -110l-442 635l442 630l164 -110l-361 -520zM774 184l-164 -110l-442 635l442 630l164 -110l-356 -520z" />
    <glyph glyph-name="registered" unicode="&#xae;" horiz-adv-x="2359" 
d="M1017 1538v-427h97q61 0 111 10t85.5 35.5t54.5 70.5t19 116q0 57 -19.5 94.5t-52.5 60t-78 31.5t-96 9h-121zM819 1692h348q78 0 153.5 -16.5t135 -57t95.5 -108.5t36 -171q0 -78 -24.5 -142.5t-69 -110t-107 -70.5t-137.5 -25q32 -13 65 -49t62 -75q9 -12 25.5 -36
t37 -54t44 -64.5t46.5 -68.5q54 -80 117 -174l-208 -58q-12 28 -42.5 80t-74 118.5t-97.5 143t-114 153.5q-27 34 -51 59t-42 25v-561h-198v1262zM87 1044q0 150 39 289t109.5 260t170 220.5t220.5 170t260 109.5t289 39t289 -39t260 -109.5t220.5 -170t170 -220.5
t109.5 -260t39 -289t-39 -289t-109.5 -260t-170 -220.5t-220.5 -170t-260 -109.5t-289 -39t-289 39t-260 109.5t-220.5 170t-170 220.5t-109.5 260t-39 289zM286 1044q0 -123 32 -236.5t89.5 -212t139 -180t180 -139t212 -89.5t236.5 -32t236.5 32t212 89.5t180 139t139 180
t89.5 212t32 236.5t-32 236.5t-89.5 212t-139 180t-180 139t-212 89.5t-236.5 32t-236.5 -32t-212 -89.5t-180 -139t-139 -180t-89.5 -212t-32 -236.5z" />
    <glyph glyph-name="guillemotright" unicode="&#xbb;" horiz-adv-x="1475" 
d="M524 709l-356 520l164 110l442 -630l-442 -635l-164 110zM1069 709l-356 520l164 110l442 -630l-442 -635l-164 110z" />
    <glyph glyph-name="onequarter" unicode="&#xbc;" horiz-adv-x="2183" 
d="M160 1782q72 37 134 80.5t108 81.5q54 44 98 88h155v-820h238l-37 -159h-639v159h238v582q-75 -49 -143 -78t-111 -45zM1516 1008h204l-250 -537q-6 -14 -14 -29t-15 -28q-8 -15 -16 -29h226v164q0 20 2.5 45.5t5.5 52t5.5 51.5t2.5 43l172 50v-328v-78h135l-45 -164h-90
v-201l-188 -53v254h-451v139zM1700 2032h209l-1331 -2032h-209z" />
    <glyph glyph-name="onehalf" unicode="&#xbd;" horiz-adv-x="2167" 
d="M123 1782q72 37 132 80.5t104 81.5q51 44 92 88h155v-820h230l-37 -159h-619v159h226v582q-75 -49 -137 -78t-105 -45zM1618 2032h209l-1331 -2032h-209zM1970 172l-37 -168h-704v152l90 65q45 35 93 74t93.5 80.5t86 84.5t71 84t48.5 79.5t18 72.5q0 68 -43 106t-130 38
q-29 0 -56.5 -7t-59.5 -22.5t-71 -41.5t-91 -64l-70 126q54 48 102 81.5t95 54.5t95 31t102 10q73 0 135 -19t106 -56t69 -91.5t25 -124.5q0 -37 -7 -72t-25 -71.5t-50 -77t-82 -88.5t-120.5 -106t-165.5 -130h106h377z" />
    <glyph glyph-name="threequarters" unicode="&#xbe;" horiz-adv-x="2302" 
d="M1569 1008h205l-250 -537l-14.5 -29t-14.5 -28q-8 -15 -16 -29h225v164q0 20 2.5 45.5t5.5 52t5.5 51.5t2.5 43l172 50v-328v-78h136l-46 -164h-90v-201l-188 -53v254h-451v139zM1757 2032h209l-1331 -2032h-209zM573 1660q27 0 53 2q22 1 44.5 3t37.5 5q19 6 37 16.5
t32 25t22.5 33t8.5 39.5q0 51 -33 78.5t-93 27.5q-20 0 -41.5 -4t-48.5 -14.5t-59.5 -29.5t-72.5 -49l-75 127q75 63 157.5 99t160.5 36q61 0 115 -20t94 -55t63 -82t23 -102q0 -20 -5.5 -47.5t-18.5 -55t-35.5 -51.5t-56.5 -39q31 -6 57.5 -26.5t46 -49.5t30.5 -63.5
t11 -68.5q0 -64 -22 -113t-60 -85.5t-87.5 -61.5t-105 -40.5t-112.5 -22t-110 -6.5q-28 0 -47 0.5t-31 1.5q-14 1 -24 2l-57 168q34 -7 65 -11q26 -5 51.5 -8t38.5 -3q74 0 128 16.5t89 43t52 59.5t17 66q0 35 -17.5 61.5t-54 42.5t-93 19.5t-134.5 -6.5z" />
    <glyph glyph-name="multiply" unicode="&#xd7;" horiz-adv-x="1491" 
d="M332 1323l422 -418l417 418l160 -156l-422 -422l422 -417l-160 -156l-417 418l-426 -426l-156 155l426 426l-422 422z" />
    <glyph glyph-name="divide" unicode="&#xf7;" horiz-adv-x="1470" 
d="M106 852h1262v-213h-1262v213zM545 1200q0 40 15 75t41 61t61 41t75 15t75 -15t61.5 -41t41.5 -61t15 -75t-14.5 -76t-40 -63t-60 -42.5t-74.5 -15.5q-41 0 -77 15.5t-62.5 42.5t-41.5 63t-15 76zM545 295q0 40 15 75t41 61t61 41t75 15t75 -15t61.5 -41t41.5 -61t15 -75
t-14.5 -76t-40 -63t-60 -42.5t-74.5 -15.5q-41 0 -77 15.5t-62.5 42.5t-41.5 63t-15 76z" />
    <glyph glyph-name="kokaithai" unicode="&#xe01;" horiz-adv-x="1765" 
d="M304 987q0 42 -1 73.5t-4.5 57t-10 46t-17.5 40.5l-102 148q176 133 375.5 205.5t406.5 72.5q209 0 340 -69t193 -213q21 -56 27 -130.5t6 -148.5v-1069h-246v1020q0 57 -3 109t-14.5 96.5t-34 80.5t-61 61.5t-96 39.5t-139.5 14q-65 0 -124 -9t-114 -25t-105 -36.5
t-96 -43.5q8 -15 19 -36.5t21.5 -51t18 -68.5t7.5 -90v-1061h-246v987z" />
    <glyph glyph-name="khokhaithai" unicode="&#xe02;" horiz-adv-x="1573" 
d="M1079 1570l246 48v-1118q0 -49 -6.5 -108t-27 -118t-57.5 -114.5t-99 -98t-152 -68.5t-215 -26q-114 0 -210 36t-165.5 98.5t-109 147t-39.5 181.5v188q0 72 31.5 137t79 124.5t102.5 114.5t102.5 105.5t79 98t31.5 92.5q0 81 -35 116.5t-100 35.5q-39 0 -79.5 -9.5
t-79.5 -25t-75 -36.5t-65 -44l-99 156q93 62 199.5 102.5t226.5 40.5q66 0 128 -13.5t110 -45t77 -83t29 -128.5q0 -80 -26 -144t-66 -119.5t-88.5 -106.5t-94.5 -105t-83.5 -114.5t-54.5 -135.5q-3 -37 -3.5 -73.5t-0.5 -57.5q0 -69 18.5 -131.5t57.5 -110t98.5 -75
t140.5 -27.5q66 0 117 25t86 71.5t53 112.5t18 147v1058z" />
    <glyph glyph-name="khokhuatthai" unicode="&#xe03;" horiz-adv-x="1568" 
d="M906 1339q0 -71 -25.5 -131.5t-65 -114.5t-88 -106t-94 -106.5t-82.5 -115.5t-54 -134q-3 -28 -3.5 -56.5t-0.5 -50.5v-45q0 -68 19 -126.5t58 -102.5t97.5 -69t136.5 -25q63 0 113 25t85 71.5t53.5 112.5t18.5 147v1058l246 48v-1118q0 -49 -7 -108t-27.5 -118
t-58 -114.5t-99 -98t-150 -68.5t-211.5 -26q-111 0 -206 36t-164.5 98.5t-109.5 147t-40 181.5v188q0 70 32.5 136t82 128.5t106.5 121t106.5 112.5t82 104t32.5 95q0 43 -28 70.5t-74 27.5q-39 0 -68.5 -16t-55 -40t-48.5 -53t-49 -55l-25 -28q-87 74 -145.5 122.5
t-95.5 77.5q-43 34 -70 54l123 147q23 -18 50 -40q23 -19 53 -44.5t64 -54.5q50 59 126.5 97t168.5 38q66 0 120 -23.5t92 -62t58.5 -89t20.5 -104.5z" />
    <glyph glyph-name="khokhwaithai" unicode="&#xe04;" horiz-adv-x="1749" 
d="M494 0h-246v1159q0 88 42.5 171t125 148t204 104.5t279.5 39.5q130 0 240.5 -30.5t191 -89t125.5 -145t45 -198.5v-1159h-246v1106q0 72 -26.5 131.5t-77.5 102.5t-125.5 66.5t-171.5 23.5q-59 0 -122.5 -17t-116 -52t-87 -90.5t-34.5 -131.5v-308q74 87 172 136t200 49
q22 0 48.5 -1.5t54.5 -10.5l-49 -197q-11 2 -24 4q-11 2 -26 3t-32 1q-45 0 -97.5 -19t-101 -51t-88 -73t-57.5 -86v-586z" />
    <glyph glyph-name="khokhonthai" unicode="&#xe05;" horiz-adv-x="1803" 
d="M494 818q74 89 172 136.5t200 47.5q25 0 51.5 -3t51.5 -9l-53 -197q-10 2 -22 4q-11 2 -25 3t-31 1q-45 0 -97.5 -18.5t-101 -50t-88 -73t-57.5 -87.5v-572h-246v998q0 123 27.5 229t85 188t146.5 137t212 77l209 -168l196 168q99 -15 178.5 -54t135.5 -97.5t86.5 -134.5
t30.5 -165v-1178h-246v1133q0 114 -35.5 178.5t-99.5 95.5l-246 -200l-234 188q-29 -11 -64 -40t-65 -75t-50.5 -109.5t-20.5 -143.5v-209z" />
    <glyph glyph-name="khorakhangthai" unicode="&#xe06;" horiz-adv-x="1716" 
d="M281 618q0 87 28 159t70.5 134t91.5 115.5t91.5 104.5t70.5 102t28 106q0 31 -18 54.5t-55 23.5q-31 0 -71 -26.5t-93 -87.5q-16 -19 -34.5 -39.5t-31.5 -38.5q-87 72 -143.5 115.5t-91.5 66.5q-40 27 -64 39l107 172q27 -18 57 -41q26 -20 57 -46t62 -56q25 29 58 55.5
t71 47t79 32.5t83 12q60 0 106.5 -21.5t78.5 -57t48.5 -82t16.5 -97.5q0 -66 -22 -125.5t-56.5 -116.5t-76 -113.5t-81 -116t-71.5 -124t-46 -137.5q-3 -19 -3.5 -42.5t-0.5 -47.5q0 -25 0.5 -48.5t1.5 -41.5q1 -22 2 -41q43 -46 99 -87t116 -72t118 -49t106 -18
q78 0 127.5 22.5t77.5 65t38.5 104.5t10.5 140v1053l245 49v-1233q0 -84 -31 -160t-88.5 -133.5t-139.5 -91t-183 -33.5q-254 0 -500 246q0 -50 -9 -94.5t-20 -79.5q-12 -40 -28 -76l-246 74q16 32 29 80q11 41 20 103t9 149v249z" />
    <glyph glyph-name="ngonguthai" unicode="&#xe07;" horiz-adv-x="1368" 
d="M874 942q0 105 -8.5 184.5t-34.5 141t-75.5 107.5t-130.5 83l127 172q114 -52 197 -128t126 -187q28 -65 36.5 -155.5t8.5 -192.5v-475q0 -48 -4.5 -106t-21.5 -116t-49.5 -113t-88.5 -97t-139 -67.5t-201 -25.5q-20 0 -43 2t-45 6t-42 8t-33 9l-381 1163l222 48
l348 -1032q66 1 110.5 24t71.5 65.5t38.5 104t11.5 139.5v438z" />
    <glyph glyph-name="chochanthai" unicode="&#xe08;" horiz-adv-x="1498" 
d="M1250 479q0 -49 -3 -106t-16.5 -114t-41.5 -109.5t-78.5 -93t-127.5 -65t-187 -24.5q-20 0 -43 2t-45.5 6t-42 8t-33.5 9l-205 759q-14 55 -33.5 90t-37.5 55q-21 24 -44 35l177 143q29 -17 57 -50q24 -28 50 -74t44 -116l178 -667q64 1 101.5 24.5t56.5 67t24 105.5
t5 140v583q0 75 -9 137t-41.5 106t-95 68.5t-170.5 24.5q-48 0 -102 -9.5t-109 -24.5t-108.5 -34.5t-99.5 -39.5t-82 -39t-57 -34l-114 164q77 51 161.5 91.5t174.5 69.5t184 44.5t189 15.5q83 0 160 -16t141.5 -47t113 -76.5t72.5 -105.5q22 -56 29.5 -121t7.5 -146v-636z
" />
    <glyph glyph-name="chochingthai" unicode="&#xe09;" horiz-adv-x="1697" 
d="M1450 369q0 -87 10 -149.5t23 -104.5q14 -48 33 -82l-250 -70q-17 36 -29 76q-11 35 -20 79.5t-9 94.5q-126 -123 -244 -184.5t-247 -61.5q-97 0 -174.5 31.5t-131.5 87t-83 132t-29 167.5v254q0 85 -10 147.5t-21 104.5q-13 49 -30 84l241 65q18 -35 33 -75
q12 -35 22.5 -80t10.5 -94v-308q0 -57 5 -110.5t27.5 -95.5t69.5 -67.5t131 -25.5q48 0 104.5 18t113.5 49t111 72t97 87v610q0 57 -2.5 109t-13.5 96.5t-33 80.5t-60 61.5t-95.5 39.5t-139.5 14q-83 0 -166 -15.5t-164.5 -43.5t-162.5 -67t-159 -87l-102 164
q83 55 175 102.5t192.5 82t208.5 54t223 19.5q146 0 249.5 -35.5t169 -106.5t96 -177.5t30.5 -249.5v-692z" />
    <glyph glyph-name="chochangthai" unicode="&#xe0a;" horiz-adv-x="1572" 
d="M1324 500q0 -49 -7 -108t-27 -118t-58 -114.5t-99 -98t-150 -68.5t-212 -26q-111 0 -206.5 36t-166 98.5t-111 147t-40.5 181.5v188q0 75 32 140t79.5 123t103.5 112t103.5 107t79.5 106.5t32 112.5q-6 119 -135 119q-40 0 -76.5 -8t-71.5 -21.5t-69.5 -31.5t-69.5 -38
l-86 164q90 56 190.5 89.5t214.5 33.5q54 0 105.5 -10.5t94.5 -33.5t74.5 -59.5t45.5 -88.5q51 17 105 42t106.5 66t101 103t88.5 153l217 -94q-21 -54 -59.5 -108.5t-92.5 -105.5t-121.5 -95t-147.5 -76q113 -43 173 -151.5t60 -262.5v-405zM1078 893q0 139 -53.5 222.5
t-142.5 105.5q-21 -54 -54.5 -100t-73 -88.5t-80.5 -85t-77 -90t-63 -103t-37 -123.5q-3 -28 -3.5 -56.5t-0.5 -50.5v-45q0 -68 20 -126.5t59.5 -102.5t98.5 -69t137 -25q61 0 111 25t85.5 71.5t54.5 112.5t19 147v381z" />
    <glyph glyph-name="sosothai" unicode="&#xe0b;" horiz-adv-x="1591" 
d="M336 1479q28 29 61.5 54.5t71.5 44t79.5 29.5t86.5 11q49 0 91.5 -14.5t76.5 -39.5t59 -58.5t39 -71.5q52 15 107 39.5t108.5 65.5t103 104t91.5 155l217 -94q-44 -108 -142.5 -207t-259.5 -182q26 -11 61.5 -42t68.5 -77.5t57.5 -106t29.5 -126.5v-463q0 -49 -7 -108
t-27 -118t-57.5 -114.5t-99 -98t-150 -68.5t-211.5 -26q-111 0 -206.5 36t-166.5 98.5t-111.5 147t-40.5 181.5v188q0 76 33 142t82 125t106.5 113t106.5 106.5t82 105.5t33 109q0 40 -28 67t-75 27q-37 0 -83.5 -26.5t-96.5 -88.5l-70 -77q-82 68 -141 112t-98 70
q-46 31 -76 47l111 168q33 -21 66 -44q28 -20 60 -44.5t58 -50.5zM1098 938q0 48 -13.5 93t-39 83t-62 67t-82.5 44q-19 -56 -52.5 -103t-73 -90.5t-81 -85.5t-78 -89.5t-63.5 -102.5t-37 -123q-3 -28 -3.5 -56.5t-0.5 -50.5v-45q0 -68 19 -126.5t57.5 -102.5t96 -69
t134.5 -25q71 0 123.5 24.5t87 70.5t51.5 112t17 149v426z" />
    <glyph glyph-name="chochoethai" unicode="&#xe0c;" horiz-adv-x="2551" 
d="M2303 397q0 -92 -32.5 -168.5t-88.5 -132t-131.5 -86t-161.5 -30.5q-63 0 -117.5 20.5t-104 54.5t-95.5 78t-92 92q0 -50 -9 -94.5t-20 -79.5q-13 -40 -29 -76l-245 66q17 35 30 84q11 42 21 104.5t10 147.5v663q0 55 -2 105t-11 92.5t-29 76.5t-56 57.5t-91 36.5
t-135 13q-111 0 -217.5 -32.5t-212.5 -81.5q8 -15 19 -36.5t21.5 -51t18 -68.5t7.5 -90v-635q0 -60 8 -108.5t33.5 -82.5t73 -52.5t127.5 -18.5l32 -172q-12 -3 -42 -7.5t-64 -4.5q-84 0 -159.5 18.5t-132 60.5t-89.5 111t-33 170v700q0 56 -7 94.5t-26 69.5l-102 148
q80 61 170 112.5t188 88t202.5 57t213.5 20.5q105 0 185.5 -17t141.5 -52t104.5 -88t72.5 -125q12 -29 19.5 -74t11.5 -93t5 -91.5t1 -69.5v-586q20 -26 59 -66t87.5 -78t101 -65.5t100.5 -27.5q80 0 125 28t67.5 74.5t27.5 106t5 122.5v1042l246 48v-1221z" />
    <glyph glyph-name="yoyingthai" unicode="&#xe0d;" horiz-adv-x="2514" 
d="M1484 507q0 -69 12.5 -128t43.5 -101.5t84 -66.5t134 -24q66 0 115 25t82 71.5t49 111.5t16 145v1030l246 48v-1504q0 -58 -11.5 -119.5t-39 -119.5t-73 -109.5t-113.5 -89.5t-160 -60.5t-213 -22.5q-85 0 -151.5 12.5t-119.5 37t-95 61.5t-77 86l201 111
q43 -59 106.5 -87t159.5 -28q163 0 248.5 82.5t91.5 261.5q-18 -29 -49 -54t-70 -43t-85 -28t-95 -10q-114 0 -203.5 36t-151.5 98.5t-95 147t-33 181.5v582q0 55 -2 105t-11 92.5t-29 76.5t-56 57.5t-91 36.5t-135 13q-111 0 -218 -32.5t-212 -81.5q8 -15 19 -36.5
t21.5 -51t18 -68.5t7.5 -90v-635q0 -60 7.5 -108.5t33 -82.5t73 -52.5t127.5 -18.5l33 -172q-12 -3 -42 -7.5t-64 -4.5q-85 0 -160 18.5t-131.5 60.5t-89.5 111t-33 170v700q0 56 -7 94.5t-26 69.5l-102 148q80 61 170 112.5t188 88t202.5 57t213.5 20.5q104 0 185 -17
t142 -52t104.5 -88t72.5 -125q12 -29 19.5 -74t11 -93t5 -91.5t1.5 -69.5v-513z" />
    <glyph glyph-name="dochadathai" unicode="&#xe0e;" horiz-adv-x="1784" 
d="M872 -467q-15 -6 -37.5 -22t-46.5 -38.5t-46.5 -49t-37.5 -54.5l-196 86q32 52 76.5 99.5t96 85t107 63.5t109.5 35l319 -164q14 0 27 13.5t23.5 35.5t17 50t6.5 57v1290q0 86 -10.5 159.5t-47.5 127t-110 84t-197 30.5q-111 0 -222 -32.5t-216 -81.5q21 -22 44.5 -56
t42.5 -74t31.5 -84t12.5 -85v-668q0 -83 -27 -147t-74.5 -108t-112.5 -66.5t-142 -22.5q-16 0 -33 0.5t-33 3.5l-53 184q81 0 127 16.5t68.5 47.5t28 76t5.5 102v496q0 66 -7 110.5t-19.5 76t-29 55.5t-34.5 48l-114 140q80 61 172.5 112.5t193.5 88t208 57t216 20.5
q211 0 349 -69t196 -213q23 -56 28 -128.5t5 -146.5v-1343q0 -71 -17.5 -136.5t-57.5 -115.5t-105 -81t-160 -32z" />
    <glyph glyph-name="topatakthai" unicode="&#xe0f;" horiz-adv-x="1783" 
d="M757 -424l221 162l254 -168q21 0 33 14.5t17 35.5t6 43.5t1 37.5v1319q0 86 -10.5 159.5t-47.5 127t-109.5 84t-196.5 30.5q-112 0 -223 -32.5t-216 -81.5q22 -22 44.5 -56t41 -74t30 -84t11.5 -85v-668q0 -83 -26 -147t-73 -108t-111.5 -66.5t-141.5 -22.5
q-16 0 -33 0.5t-33 3.5l-53 184q81 0 127.5 16.5t69 47.5t28 76t5.5 102v496q0 66 -7 110.5t-19.5 76t-29 55.5t-35.5 48l-114 140q80 61 172.5 112.5t193.5 88t208 57t216 20.5q211 0 347 -68.5t198 -213.5q22 -56 27.5 -128.5t5.5 -146.5v-1372q0 -62 -13.5 -122
t-50.5 -107.5t-102.5 -77t-169.5 -29.5l-221 164l-221 -164l-224 178q-21 -4 -45.5 -20t-47.5 -39t-43.5 -49.5t-34.5 -51.5l-183 80q32 52 74.5 98t91.5 82t102.5 60.5t107.5 33.5z" />
    <glyph glyph-name="thothanthai" unicode="&#xe10;" horiz-adv-x="1493" 
d="M324 -311q21 -32 40 -54t35.5 -36t32.5 -22.5t31 -14.5l213 147l213 -155q31 0 51.5 7.5t32.5 28.5t17 58.5t5 97.5v74l234 53v-172q0 -92 -23 -155.5t-70.5 -102.5t-121 -56.5t-174.5 -17.5l-164 135l-201 -135q-48 11 -89 26t-79 38.5t-74 57.5t-73 83zM1245 455
q0 -49 -3 -104t-17 -108t-42 -101.5t-78 -85.5t-126 -59t-184 -22q-22 0 -45.5 2t-46 6t-41.5 8t-31 9l-205 762q-17 63 -37.5 100t-38.5 57q-21 23 -43 31l172 131q30 -18 58 -50q24 -27 51 -72.5t47 -114.5l184 -664q63 0 99 22t54 64t22.5 104t4.5 142v582q0 75 -9 137
t-40.5 106t-93.5 68.5t-168 24.5q-81 0 -165 -19t-159.5 -47t-138 -59.5t-101.5 -56.5l-112 165q77 51 162 91.5t175.5 69.5t184 44.5t187.5 15.5q42 0 83 -3.5t79 -11.5q31 -6 56.5 -10t48.5 -4t47 4t53 13q66 22 126.5 64.5t120.5 107.5l168 -143q-52 -62 -136.5 -110
t-199.5 -79q16 -18 26 -36.5t19 -36.5q19 -56 26 -121t7 -146v-667z" />
    <glyph glyph-name="thonangmonthothai" unicode="&#xe11;" horiz-adv-x="1830" 
d="M1168 1401q-49 -1 -106.5 -27.5t-114.5 -72t-110.5 -107.5t-94.5 -134t-65.5 -151t-24.5 -159v-750h-246v672q0 63 10 127t30.5 132t51.5 141.5t72 156.5q10 18 19.5 42t9.5 52q0 22 -10 41.5t-35 19.5q-19 0 -41.5 -12t-46 -31t-47 -42t-43.5 -45t-36 -41t-24 -29
q-37 60 -81.5 112.5t-82.5 92.5q-45 47 -90 86l152 143q18 -13 40 -32q19 -17 44.5 -42.5t54.5 -60.5q16 15 39.5 35t54.5 38q44 31 88.5 44.5t87.5 13.5q39 0 72.5 -11.5t58.5 -34t39.5 -55t14.5 -75.5v-25q34 45 76 82.5t92 64.5t107 42.5t122 15.5q84 0 153.5 -32
t119 -88t77 -132.5t27.5 -165.5v-1200h-250v1094q0 60 -3 115t-19 98t-49 68.5t-93 25.5z" />
    <glyph glyph-name="thophuthaothai" unicode="&#xe12;" horiz-adv-x="2593" 
d="M1501 426q13 -18 37 -42.5t55 -51.5t67 -53.5t73 -47.5t73 -34t68 -13q53 0 90.5 13t62.5 36.5t39.5 55t21.5 68.5t9 77.5t2 81.5v1054l246 48v-1233q0 -92 -32.5 -169t-88.5 -132.5t-131.5 -86t-161.5 -30.5q-63 0 -121.5 21t-112.5 55.5t-104 79t-96 90.5
q0 -50 -9 -94.5t-20 -79.5q-12 -40 -28 -76l-246 70q17 34 30 82q11 42 21 104.5t10 149.5v741q0 115 -31 184t-96 90l-250 -217l-237 205q-29 -11 -64 -40t-65.5 -75t-51 -109.5t-20.5 -143.5v-349q0 -49 2.5 -104t11 -108.5t25.5 -103t46 -87t72.5 -60.5t104.5 -24
q34 0 57 4.5t29 7.5l33 -172q-5 -2 -22 -5t-41 -6.5t-52.5 -6t-56.5 -2.5q-79 0 -140.5 21t-108.5 56.5t-80.5 84t-56.5 103t-36.5 112.5t-21 114t-9.5 106.5t-2 90.5v299q0 123 28 229t86 188t147 137t210 77l213 -181l201 181q98 -15 176.5 -53.5t133 -96.5t83.5 -134
t29 -167v-729z" />
    <glyph glyph-name="nonenthai" unicode="&#xe13;" horiz-adv-x="2569" 
d="M314 1053q0 21 -2.5 44.5t-7 44.5t-11.5 37.5t-16 24.5l-106 148q80 61 170.5 112.5t188.5 88t202.5 57t212.5 20.5q105 0 186.5 -17t143 -52t105.5 -88t73 -125q9 -23 16 -51.5t11.5 -65t7 -83t2.5 -104.5v-532q0 -60 4 -116.5t24 -101t62 -71t119 -26.5q32 0 68 13
t73 33.5t73 46.5t67.5 52t56 50.5t39.5 41.5v1135l245 49v-1241q0 -85 9 -147.5t20 -104.5q12 -49 29 -84l-246 -66q-17 36 -29 76q-11 35 -19.5 79.5t-8.5 94.5q-45 -48 -94 -92t-103.5 -78t-114 -54.5t-123.5 -20.5q-86 0 -158.5 30.5t-125.5 86t-83 132t-30 168.5v635
q0 55 -2 105.5t-11 93.5t-29 78t-56 60t-91 38.5t-135 13.5q-111 0 -217.5 -32.5t-212.5 -81.5q8 -15 20.5 -36.5t24.5 -51t20.5 -68.5t8.5 -90v-651q0 -66 8 -111.5t30 -73.5t59 -40.5t96 -12.5q15 0 26 0.5t27 3.5l41 -168q-40 -12 -86 -20t-99 -8q-61 0 -111 11.5
t-93 33.5q-86 40 -121 117.5t-35 197.5z" />
    <glyph glyph-name="dodekthai" unicode="&#xe14;" horiz-adv-x="1698" 
d="M192 922q0 158 36 287t115 221t205.5 142t307.5 50q130 0 239.5 -33.5t188 -97.5t122.5 -156t44 -209v-1126h-246v1073q0 172 -95.5 264.5t-285.5 92.5q-83 0 -151.5 -25t-118 -80.5t-76.5 -143.5t-27 -214v-353q0 -47 2.5 -98t12 -100.5t28 -94t49.5 -79t76.5 -55.5
t110.5 -23q17 0 36 1.5t36 4t31 6t20 8.5l29 -168q-17 -6 -44 -11t-58.5 -9t-63.5 -6t-60 -2q-112 0 -190.5 36t-129.5 95t-80 136t-43 159t-17 162.5t-3 148.5v197z" />
    <glyph glyph-name="totaothai" unicode="&#xe15;" horiz-adv-x="1749" 
d="M194 987q0 123 28 229t86 188t147 137.5t210 76.5l213 -180l201 180q98 -15 176.5 -52.5t133 -94.5t83.5 -133.5t29 -170.5v-1167h-246v1126q0 112 -31 182t-96 89l-250 -213l-237 205q-29 -12 -64 -42t-65.5 -77t-51 -110.5t-20.5 -143.5v-361q0 -40 1.5 -91.5
t9.5 -105.5t24.5 -106t46.5 -93t76 -66t113 -25q37 0 73.5 3.5t61.5 12.5l32 -168q-18 -6 -46 -11t-59.5 -9t-63.5 -6t-60 -2q-79 0 -140.5 21t-108.5 56.5t-80.5 84t-56.5 103t-36.5 112.5t-21 114t-9.5 106.5t-2 90.5v311z" />
    <glyph glyph-name="thothungthai" unicode="&#xe16;" horiz-adv-x="1790" 
d="M1296 1020q0 86 -11 159.5t-49 127t-110.5 84t-195.5 30.5q-117 0 -228 -31t-222 -83q7 -12 19 -34t23 -52.5t19 -70.5t8 -89v-598q0 -72 5 -128t28 -94t71 -57.5t134 -19.5l37 -172q-13 -3 -43 -7.5t-64 -4.5q-86 0 -161 22t-131 68.5t-88.5 118t-32.5 171.5v525
q0 67 -0.5 116.5t-3.5 86t-10 64.5t-19 52l-107 148q80 61 172.5 112.5t193.5 88t208.5 57t216.5 20.5q104 0 192 -17t158.5 -52t121.5 -88t82 -125q13 -28 23 -112t10 -220v-1016h-246v1020z" />
    <glyph glyph-name="thothahanthai" unicode="&#xe17;" horiz-adv-x="1667" 
d="M248 1229q0 85 -10 146.5t-21 103.5q-14 48 -31 82l246 69q16 -36 28 -76q11 -35 20 -80t9 -94q126 126 250.5 186t253.5 60q86 0 163.5 -30.5t136 -86t92.5 -132.5t34 -169v-1208h-246v1077q0 61 -7 121t-31.5 106.5t-71.5 75.5t-127 29q-48 0 -107 -18t-119 -48.5
t-116.5 -71.5t-99.5 -87v-1184h-246v1229v0z" />
    <glyph glyph-name="thothongthai" unicode="&#xe18;" horiz-adv-x="1630" 
d="M782 1634q72 0 156.5 -9.5t166.5 -27t155 -41.5t124 -53l-94 -184q-52 26 -115.5 47.5t-131 36.5t-136 23t-129.5 8q-68 0 -126 -12.5t-101 -35t-67.5 -54.5t-24.5 -70q0 -37 22.5 -69t60.5 -58.5t87.5 -47t103.5 -34.5l324 -103q127 -40 206.5 -91t123.5 -111.5
t59.5 -130t15.5 -146.5q0 -120 -44 -213.5t-126.5 -158t-201 -98.5t-267.5 -34q-75 0 -151.5 11t-150.5 32t-144 50.5t-131 66.5v610l246 54v-558q86 -37 170.5 -53t177.5 -16q73 0 141.5 17.5t120.5 51t83.5 83t31.5 114.5q0 48 -6.5 93t-31 85.5t-72 74.5t-128.5 58
l-332 103q-68 20 -144.5 50t-142 76.5t-108.5 112.5t-43 158q1 95 45.5 168.5t121.5 123.5t181 75.5t225 25.5z" />
    <glyph glyph-name="nonuthai" unicode="&#xe19;" horiz-adv-x="1672" 
d="M500 516q0 -62 6.5 -121.5t30.5 -106t71.5 -75.5t128.5 -29q48 0 107 18t119 49t117 72t100 87v1163l245 45v-1249q0 -87 9.5 -149.5t21.5 -104.5q13 -48 31 -82l-246 -70q-17 36 -29 76q-11 35 -19.5 79.5t-8.5 94.5q-252 -246 -504 -246q-86 0 -163 30.5t-135.5 86
t-93 132.5t-34.5 169v844q0 85 -9 146.5t-20 103.5q-12 48 -28 82l241 69q17 -36 31 -76q11 -35 21 -80t10 -94v-864z" />
    <glyph glyph-name="bobaimaithai" unicode="&#xe1a;" horiz-adv-x="1689" 
d="M254 1229q0 85 -10 146.5t-21 103.5q-13 48 -30 82l241 69q18 -36 33 -76q12 -35 22.5 -80t10.5 -94v-897q0 -72 20.5 -131.5t64.5 -102t113 -66t166 -23.5q60 0 119.5 16t106.5 50.5t76.5 88.5t29.5 131v1125l246 47v-1188q0 -87 -38 -171t-115.5 -150t-194.5 -106
t-275 -40q-131 0 -235 31t-176.5 90.5t-112.5 146.5t-41 199v799z" />
    <glyph glyph-name="poplathai" unicode="&#xe1b;" horiz-adv-x="1781" 
d="M250 1229q0 85 -10 146.5t-21 103.5q-13 48 -30 82l241 69q18 -36 33 -76q12 -35 22.5 -80t10.5 -94v-897q0 -72 28 -131.5t81 -102t129 -66t173 -23.5q58 0 124.5 16t123.5 50.5t94.5 88.5t37.5 131v1860l246 48v-1924q0 -87 -45.5 -171t-132 -150t-211 -106t-282.5 -40
q-131 0 -242.5 31t-193 90.5t-128.5 146.5t-48 199v799z" />
    <glyph glyph-name="phophungthai" unicode="&#xe1c;" horiz-adv-x="1719" 
d="M165 926q0 40 2 90.5t9.5 106.5t21 114t36.5 112.5t56.5 103t80 84t108 56.5t140.5 21q28 0 60.5 -2t64 -6t59.5 -9.5t46 -11.5l-33 -168q-28 10 -57.5 13.5t-57.5 3.5q-21 0 -42 -2.5t-40 -6.5q-63 -14 -103 -51t-63.5 -92t-32.5 -124t-9 -146v-426q0 -81 20.5 -145.5
t50.5 -111.5t65 -76t64 -40l238 205l250 -213q65 18 96 88.5t31 181.5v1098l245 45v-1188q0 -100 -29 -177t-83.5 -132.5t-132.5 -90.5t-176 -50l-201 184l-213 -184q-122 23 -210.5 78.5t-146.5 137.5t-86 188t-28 230v312z" />
    <glyph glyph-name="fofathai" unicode="&#xe1d;" horiz-adv-x="1719" 
d="M165 926q0 40 2 90.5t9.5 106.5t21 114t36.5 112.5t56.5 103t80 84t108 56.5t140.5 21q28 0 60.5 -2t64 -6t59.5 -9.5t46 -11.5l-33 -168q-28 10 -57.5 13.5t-57.5 3.5q-21 0 -42 -2.5t-40 -6.5q-63 -14 -103 -51t-63.5 -92t-32.5 -124t-9 -146v-426q0 -81 20.5 -145.5
t50.5 -111.5t65 -76t64 -40l238 205l250 -213q65 18 96 88.5t31 181.5v1826l245 48v-1919q0 -100 -29 -177t-83.5 -132.5t-132.5 -90.5t-176 -50l-201 184l-213 -184q-122 23 -210.5 78.5t-146.5 137.5t-86 188t-28 230v312z" />
    <glyph glyph-name="phophanthai" unicode="&#xe1e;" horiz-adv-x="2140" 
d="M496 426q0 -59 10.5 -107.5t31.5 -83.5t52.5 -54.5t73.5 -19.5q63 0 115.5 22.5t90.5 66.5t59 107.5t21 146.5v1066l246 48v-1135q0 -59 10.5 -116.5t37 -103t72 -74t114.5 -28.5q63 0 104.5 20t66.5 63t35.5 110t10.5 162v1051l245 49v-1116q0 -56 -6 -116.5
t-23.5 -119.5t-49 -112t-83 -93.5t-125.5 -64t-175 -23.5q-93 0 -157 22.5t-107 56.5t-69.5 73.5t-44.5 73.5q-41 -68 -93.5 -112.5t-111 -70.5t-121.5 -36.5t-124 -10.5q-86 0 -151.5 32t-110 89t-67.5 136t-23 173v832q0 85 -10 146.5t-21 103.5q-14 48 -31 82l242 69
q18 -36 33 -76q12 -35 22.5 -80t10.5 -94v-954z" />
    <glyph glyph-name="fofanthai" unicode="&#xe1f;" horiz-adv-x="2140" 
d="M496 426q0 -59 10.5 -107.5t31.5 -83.5t52.5 -54.5t73.5 -19.5q63 0 115.5 22.5t90.5 66.5t59 107.5t21 146.5v1066l246 48v-1135q0 -59 10.5 -116.5t37 -103t72 -74t114.5 -28.5q63 0 104.5 20t66.5 63t35.5 110t10.5 162v1797l245 41v-1854q0 -56 -6 -116.5
t-23.5 -119.5t-49 -112t-83 -93.5t-125.5 -64t-175 -23.5q-93 0 -157 22.5t-107 56.5t-69.5 73.5t-44.5 73.5q-41 -68 -93.5 -112.5t-111 -70.5t-121.5 -36.5t-124 -10.5q-86 0 -151.5 32t-110 89t-67.5 136t-23 173v832q0 85 -10 146.5t-21 103.5q-14 48 -31 82l242 69
q18 -36 33 -76q12 -35 22.5 -80t10.5 -94v-954z" />
    <glyph glyph-name="phosamphaothai" unicode="&#xe20;" horiz-adv-x="1785" 
d="M374 922q0 66 -7.5 110.5t-20 76t-30 55.5t-37.5 48l-110 140q80 61 172 112.5t192.5 88t207.5 57t218 20.5q211 0 346.5 -68.5t194.5 -213.5q14 -32 21.5 -72t11 -83t4 -87.5t0.5 -85.5v-1020h-246v1020q0 57 -4 109t-16.5 96.5t-36.5 80.5t-64 61.5t-98.5 39.5
t-140.5 14q-115 0 -227 -31t-220 -83q21 -22 45 -56t44 -74t33 -84t13 -85v-668q0 -92 -32.5 -157t-89.5 -105.5t-134 -59t-166 -18.5l-53 184q86 0 133 18.5t68.5 53.5t25 84t3.5 111v471z" />
    <glyph glyph-name="momathai" unicode="&#xe21;" horiz-adv-x="1670" 
d="M250 1229q0 85 -10 146.5t-21 103.5q-14 48 -31 82l242 69q18 -36 33 -76q12 -35 22.5 -80t10.5 -94v-970q43 -46 99 -87t116 -72t119 -49t108 -18q53 0 91.5 13t65 36.5t42.5 55t24.5 68.5t11.5 77.5t3 81.5v1054l245 48v-1233q0 -92 -34 -169t-92.5 -132.5t-136 -86
t-163.5 -30.5q-130 0 -253.5 61t-249.5 185q0 -50 -9 -94.5t-20 -79.5q-13 -40 -29 -76l-246 70q17 34 31 82q11 42 21 104.5t10 149.5v860z" />
    <glyph glyph-name="yoyakthai" unicode="&#xe22;" horiz-adv-x="1723" 
d="M471 479q1 -72 28 -134t77.5 -108t124.5 -72t171 -26q58 0 121.5 16.5t115.5 52t86 90.5t34 132v1140l246 48v-1208q0 -88 -42 -171t-124 -148t-203 -104.5t-279 -39.5q-131 0 -241 35t-190.5 101t-125.5 161t-45 215q0 69 12 125.5t37 104t63.5 86.5t92.5 73
q-99 59 -150 145.5t-51 198.5q0 48 9 98.5t31.5 98.5t59.5 90t93 74t133 50.5t178 18.5q44 0 85 -3.5t75 -12.5l-29 -181q-21 4 -42.5 4.5t-43.5 0.5q-58 0 -112.5 -12.5t-97 -41.5t-68 -76t-25.5 -116q0 -63 25.5 -110t66.5 -78t93 -46.5t106 -15.5h106l-36 -180l-54 -4
q-68 -6 -125 -27.5t-98 -56t-64.5 -82t-23.5 -105.5z" />
    <glyph glyph-name="roruathai" unicode="&#xe23;" horiz-adv-x="1393" 
d="M700 1634q127 0 244 -36t219 -95l-94 -184q-52 26 -97 47.5t-89 36.5t-89.5 23t-97.5 8q-69 0 -122.5 -17t-89.5 -48.5t-55 -75t-19 -97.5q0 -48 14 -84t44 -65t76 -52t111 -45l164 -53q94 -31 170.5 -72.5t130.5 -94.5t83.5 -117.5t29.5 -141.5q0 -117 -39 -210
t-112 -158.5t-179 -100.5t-239 -35q-152 0 -295 43t-267 117l99 184q61 -37 119 -64.5t116 -46t118 -27.5t126 -9q144 0 225.5 68.5t81.5 197.5q0 48 -14 86t-45.5 69.5t-82 57.5t-124.5 49l-156 49q-86 26 -160 61.5t-128.5 84.5t-85.5 115t-31 153q0 109 38 197.5t108 151
t170 96.5t224 34z" />
    <glyph glyph-name="ruthai" unicode="&#xe24;" horiz-adv-x="1790" 
d="M1296 1020q0 86 -11 159.5t-49 127t-110.5 84t-195.5 30.5q-117 0 -228 -31t-222 -83q7 -12 19 -34t23 -52.5t19 -70.5t8 -89v-598q0 -72 5 -128t28 -94t71 -57.5t134 -19.5l37 -172q-13 -3 -43 -7.5t-64 -4.5q-86 0 -161 22t-131 68.5t-88.5 118t-32.5 171.5v525
q0 67 -0.5 116.5t-3.5 86t-10 64.5t-19 52l-107 148q80 61 172.5 112.5t193.5 88t208.5 57t216.5 20.5q104 0 192 -17t158.5 -52t121.5 -88t82 -125q13 -28 23 -112t10 -220v-1600l-246 -47v1651z" />
    <glyph glyph-name="lolingthai" unicode="&#xe25;" horiz-adv-x="1638" 
d="M1401 1032q-6 -189 -9 -358.5t-3 -308.5q0 -84 0.5 -151t1.5 -115q1 -56 2 -99h-242q-2 47 -4 110q-2 54 -3 132t-1 180q0 83 0.5 178t3.5 207q-31 3 -64 5.5t-67 2.5q-151 0 -262 -23.5t-184 -67.5t-108.5 -108t-35.5 -145q0 -71 20 -125t58 -91t91.5 -56t121.5 -19
q25 0 48 2.5t42 6.5l29 -168q-9 -5 -27.5 -9.5t-40.5 -8t-46.5 -5.5t-45.5 -2q-147 0 -245 40.5t-156.5 105.5t-82.5 146.5t-24 162.5q0 129 60 228.5t172.5 167t273.5 102t362 34.5q25 0 46 -0.5t38 -1.5q18 -1 35 -2v115q0 73 -9 135t-41.5 106.5t-95 69.5t-169.5 25
q-80 0 -163.5 -21t-159.5 -50.5t-138 -62t-99 -56.5l-112 169q75 51 159.5 92.5t175 71t185 45.5t189.5 16q83 0 160 -16t141.5 -47.5t112.5 -78.5t73 -108q28 -65 32.5 -154t4.5 -198z" />
    <glyph glyph-name="luthai" unicode="&#xe26;" horiz-adv-x="1778" 
d="M365 922q-2 66 -9.5 110.5t-19.5 76t-29 55.5t-37 48l-110 140q80 61 172.5 112.5t193.5 88t209 57t219 20.5q211 0 346.5 -68.5t194.5 -213.5q12 -32 19.5 -70.5t11.5 -79.5t5 -83.5t1 -82.5v-1616l-246 -47v1651q0 57 -3.5 109t-16 96.5t-36 80.5t-63 61.5t-97.5 39.5
t-140 14q-118 0 -230.5 -31t-224.5 -83q21 -22 45 -56t44 -74t33 -84t13 -85v-668q0 -92 -32 -157t-88.5 -105.5t-133.5 -59t-168 -18.5l-53 188q83 0 130 18.5t70 53t28.5 83t5.5 108.5z" />
    <glyph glyph-name="wowaenthai" unicode="&#xe27;" horiz-adv-x="1364" 
d="M541 -25q-75 0 -136.5 13t-113.5 36t-97 54.5t-88 68.5l136 172q43 -35 79 -60t71 -41t71.5 -23t81.5 -7q87 0 150 32t106.5 86.5t70.5 125t41.5 147.5t19.5 155t5 147q0 270 -101.5 407t-291.5 137q-99 0 -192.5 -39t-168.5 -116l-131 151q55 57 112 95.5t117.5 62
t126.5 33.5t140 10q172 0 294 -62.5t199.5 -170.5t113.5 -252.5t36 -309.5q0 -97 -16 -198t-49 -195.5t-85 -178t-124.5 -146t-166 -98.5t-210.5 -36z" />
    <glyph glyph-name="sosalathai" unicode="&#xe28;" horiz-adv-x="1749" 
d="M494 0h-246v1159q0 88 42.5 171t125 148t204 104.5t279.5 39.5q40 0 78 -3.5t74 -8.5q15 -2 26 -3.5t21 -1.5t21.5 1.5t27.5 5.5q48 11 97.5 27.5t97.5 41t93 57t84 76.5l163 -143q-23 -28 -60 -54t-82 -49t-95.5 -43.5t-99.5 -37.5q72 -59 114 -144t42 -184v-1159h-246
v1106q0 72 -26.5 131.5t-77.5 102.5t-125.5 66.5t-171.5 23.5q-59 0 -122.5 -17t-116 -52t-87 -90.5t-34.5 -131.5v-316q37 45 80.5 80.5t91.5 60.5t98.5 38.5t101.5 13.5q19 0 47 -1.5t56 -10.5l-49 -197q-11 2 -24 4q-11 2 -26 3t-32 1q-45 0 -96.5 -19t-100 -51t-88 -73
t-59.5 -86v-586z" />
    <glyph glyph-name="sorusithai" unicode="&#xe29;" horiz-adv-x="1681" 
d="M1190 721h-154q-65 0 -117.5 16.5t-94 43.5t-73.5 61.5t-56 70.5l173 148q24 -35 44 -58.5t40.5 -38.5t44.5 -23t57 -11h137v640l245 48v-688h5q31 0 58 5.5t50.5 14.5t44.5 19.5t40 20.5l91 -177q-19 -16 -48.5 -32t-66.5 -29.5t-79.5 -22t-88.5 -8.5h-6v-311
q0 -88 -37.5 -171t-114 -148t-193 -104.5t-274.5 -39.5q-131 0 -236 32t-179 92t-114 145.5t-40 193.5v819q0 85 -10 146.5t-21 103.5q-14 48 -31 82l246 69q17 -36 31 -76q11 -35 21 -80t10 -94v-917q0 -72 21 -132t66 -102.5t114.5 -66t166.5 -23.5q58 0 117 16.5
t105.5 52t76 90.5t29.5 132v291z" />
    <glyph glyph-name="sosuathai" unicode="&#xe2a;" horiz-adv-x="1642" 
d="M1401 1032q-6 -186 -9 -355t-3 -308q0 -84 0.5 -152t1.5 -116q1 -57 2 -101h-242q-2 46 -4 108q-2 54 -3 132t-1 182q0 83 0.5 178t3.5 207q-31 3 -64 5.5t-67 2.5q-302 0 -446 -89.5t-144 -258.5q0 -71 20 -125t58 -91t91.5 -56t121.5 -19q25 0 48 2.5t42 6.5l29 -168
q-9 -5 -27.5 -9.5t-40.5 -8t-46.5 -5.5t-45.5 -2q-147 0 -245 40.5t-156.5 105.5t-82.5 146.5t-24 162.5q0 127 60 226.5t172.5 168.5t273.5 105t362 36q25 0 46 -0.5t38 -1.5q18 -1 35 -2v115q0 73 -9 135t-41.5 106.5t-95 69.5t-169.5 25q-74 0 -154.5 -19.5t-155.5 -48.5
t-139.5 -63t-106.5 -63l-116 173q75 51 159.5 92.5t175 71t185 45.5t189.5 16q74 0 143 -12q13 -2 25 -4t24 -3t25.5 0t30.5 6q78 20 149 66t143 123l168 -143q-46 -56 -120.5 -100.5t-170.5 -75.5q22 -25 40 -50.5t30 -56.5q28 -65 32.5 -154t4.5 -198z" />
    <glyph glyph-name="hohipthai" unicode="&#xe2b;" horiz-adv-x="1686" 
d="M1216 1102q46 -12 86.5 -48.5t70.5 -87t47.5 -111.5t17.5 -122v-733h-246v651q0 58 -5.5 114.5t-24.5 102.5t-57 76.5t-102 38.5q-72 -29 -145.5 -52.5t-140 -40.5t-123 -28.5t-94.5 -17.5v-844h-246v1229q0 85 -10 146.5t-21 103.5q-14 48 -31 82l246 69q17 -36 31 -76
q11 -35 21 -80t10 -94v-372q54 10 111.5 24.5t114 32.5t109 39.5t95.5 46.5q84 48 137.5 97.5t83.5 102t41 108t11 115.5l267 52q3 -18 3.5 -34t0.5 -31q0 -145 -64.5 -256t-193.5 -203z" />
    <glyph glyph-name="lochulathai" unicode="&#xe2c;" horiz-adv-x="2135" 
d="M1646 1085q-1 75 -10.5 137t-42 106.5t-95.5 68.5t-171 24q-53 0 -107.5 -10.5t-113.5 -26.5l-70 177q78 31 171 46t210 15q58 0 123.5 6.5t133.5 28t137 61t135 105.5l168 -160q-62 -65 -150.5 -111t-194.5 -77q45 -31 69.5 -74.5t36.5 -91.5t14.5 -96.5t2.5 -90.5v-622
q0 -56 -6 -116.5t-23.5 -119.5t-49 -112t-83 -93.5t-125.5 -64t-175 -23.5q-93 0 -157 22.5t-107 56.5t-69.5 73.5t-44.5 73.5q-41 -68 -93.5 -112.5t-111 -70.5t-121.5 -36.5t-124 -10.5q-86 0 -151.5 32t-110 89t-67.5 136t-23 173v832q0 85 -10 146.5t-21 103.5
q-14 48 -31 82l242 69q18 -36 33 -76q12 -35 22.5 -80t10.5 -94v-954q0 -59 10.5 -107.5t31.5 -83.5t52.5 -54.5t73.5 -19.5q63 0 115.5 22.5t90.5 66.5t59 107.5t21 146.5v590l246 48v-659q0 -59 10.5 -116.5t37 -103t72 -74t114.5 -28.5q63 0 104.5 20t66.5 63t35.5 110
t10.5 162z" />
    <glyph glyph-name="oangthai" unicode="&#xe2d;" horiz-adv-x="1614" 
d="M430 553q1 -80 25.5 -151.5t70.5 -125t113.5 -85t155.5 -31.5q86 0 157 33t121.5 108t78.5 197.5t28 301.5q0 165 -30.5 283t-92 194t-154.5 112t-219 36q-59 0 -122 -13t-125 -40t-120.5 -68t-107.5 -96l-98 160q60 69 135.5 119t158 83t167 48.5t161.5 15.5
q169 0 301 -58t222.5 -167.5t138 -267t47.5 -355.5q0 -104 -16 -205.5t-50.5 -193t-87 -169.5t-126 -134.5t-168 -88.5t-212.5 -32q-144 0 -256.5 51t-189 139t-116.5 205.5t-40 251.5q0 50 8.5 101t29 98t55 87.5t85.5 70.5t120.5 47.5t160.5 17.5q71 0 126 -7t83 -13
l-37 -176q-34 6 -65.5 9t-65.5 3q-78 0 -127 -21.5t-76.5 -60t-37 -93t-9.5 -120.5z" />
    <glyph glyph-name="honokhukthai" unicode="&#xe2e;" horiz-adv-x="1618" 
d="M1200 1466q118 -108 180 -279.5t62 -400.5q0 -104 -16 -205.5t-50.5 -193t-87 -169.5t-126 -134.5t-168 -88.5t-212.5 -32q-128 0 -238 43.5t-191 127t-127 204.5t-46 276q0 50 8.5 100.5t28.5 97t54 87t85 70t121 46.5t162 17q53 0 104.5 -5.5t104.5 -14.5l-37 -176
q-22 6 -54.5 9t-72.5 3q-80 0 -129.5 -21t-77.5 -59t-37.5 -93t-9.5 -122q1 -80 25.5 -151.5t70.5 -125t113.5 -85t155.5 -31.5q89 0 160 34t121 110.5t77 198.5t27 299q0 159 -27.5 276t-87 194.5t-154 115t-227.5 37.5q-59 0 -122 -13t-125 -40t-120.5 -68t-107.5 -96
l-98 160q60 69 135.5 119t158 83t167 48.5t161.5 15.5q65 0 125 -9t113 -28q64 6 123 19.5t114.5 38.5t108 64t104.5 96l168 -144q-59 -68 -159 -121t-230 -84z" />
    <glyph glyph-name="paiyannoithai" unicode="&#xe2f;" horiz-adv-x="1638" 
d="M709 905q66 0 127 17t116 46t103 67t88 79v459l246 45v-1618h-246v889q-93 -90 -221 -139.5t-271 -49.5q-135 0 -236.5 36.5t-169 96.5t-101 136.5t-33.5 156.5q0 120 44 211t118.5 152.5t172.5 93t205 31.5q37 0 69.5 -6.5t41.5 -10.5l-45 -180q-22 3 -48 5.5t-51 2.5
q-66 0 -115 -17.5t-82 -49.5t-49 -76t-16 -98q0 -62 23.5 -113t68.5 -88t110.5 -57.5t150.5 -20.5z" />
    <glyph glyph-name="saraathai" unicode="&#xe30;" horiz-adv-x="980" 
d="M458 1261q27 0 67 7.5t87.5 25.5t101 47t109.5 72l106 -140q-54 -50 -116.5 -93.5t-129.5 -75t-138 -49.5t-143 -18q-60 0 -112.5 12.5t-96 43.5t-76 82.5t-51.5 129.5l200 124q7 -50 24 -82.5t42 -51.5t57 -26.5t69 -7.5zM458 454q27 0 67 7.5t87.5 25.5t101 47
t109.5 72l106 -140q-54 -50 -116.5 -93.5t-129.5 -75t-138 -49.5t-143 -18q-60 0 -112.5 12.5t-96 43.5t-76 82.5t-51.5 129.5l200 124q7 -50 24 -82.5t42 -51.5t57 -26.5t69 -7.5z" />
    <glyph glyph-name="maihanakatthai" unicode="&#xe31;" 
d="M-1064 2241q20 -44 52 -78q27 -29 69 -53t102 -24h837l-74 -190h-809q-53 0 -96.5 10t-79.5 26t-64 36.5t-49 42.5q-50 50 -78 115z" />
    <glyph glyph-name="saraaathai" unicode="&#xe32;" horiz-adv-x="1229" 
d="M53 1417q49 45 108.5 83t126.5 66t140 44t150 16q97 0 172 -32t127 -88t79 -132.5t27 -165.5v-1208h-246v1077q0 58 -5.5 119.5t-27.5 111t-65.5 81.5t-118.5 32q-46 0 -95 -10t-96.5 -28t-91.5 -43t-81 -54z" />
    <glyph glyph-name="saraamthai" unicode="&#xe33;" horiz-adv-x="1229" 
d="M53 1417q49 45 108.5 83t126.5 66t140 44t150 16q97 0 172 -32t127 -88t79 -132.5t27 -165.5v-1208h-246v1077q0 58 -5.5 119.5t-27.5 111t-65.5 81.5t-118.5 32q-46 0 -95 -10t-96.5 -28t-91.5 -43t-81 -54zM-651 2111q0 57 21.5 107t59 87.5t88 59.5t107.5 22t107 -22
t87.5 -59.5t59.5 -87.5t22 -107t-22 -107.5t-59.5 -88t-87.5 -59t-107 -21.5t-107.5 21.5t-88 59t-59 88t-21.5 107.5zM-492 2112q0 -24 9.5 -45.5t25.5 -37.5t37.5 -25.5t45.5 -9.5t45.5 9.5t37.5 25.5t25.5 37.5t9.5 45.5t-9.5 45.5t-25.5 37.5t-37.5 25.5t-45.5 9.5
t-45.5 -9.5t-37.5 -25.5t-25.5 -37.5t-9.5 -45.5z" />
    <glyph glyph-name="saraithai" unicode="&#xe34;" 
d="M-249 1897h-1175l86 189h1089v-189z" />
    <glyph glyph-name="saraiithai" unicode="&#xe35;" 
d="M-248 1897h-1171l90 189h856v200l225 41v-430z" />
    <glyph glyph-name="sarauethai" unicode="&#xe36;" 
d="M-560 2143q0 -37 24 -61.5t62 -24.5q37 0 61.5 24.5t24.5 61.5t-24.5 61.5t-61.5 24.5q-38 0 -62 -24.5t-24 -61.5zM-700 2086q-6 12 -9 28t-3 41q0 48 19.5 89t52 71t75.5 47.5t91 17.5q49 0 92 -18.5t75.5 -51t51 -75.5t18.5 -92t-18.5 -93.5t-51 -78.5t-75.5 -54
t-92 -20h-945l90 189h629z" />
    <glyph glyph-name="saraueethai" unicode="&#xe37;" 
d="M-646 2085h172v200l225 41v-430h-1171l86 189h463v200l225 41v-241z" />
    <glyph glyph-name="sarauthai" unicode="&#xe38;" 
d="M-492 -819v339q0 38 -18.5 63.5t-40.5 40.5q-26 18 -59 28l149 173q59 -13 107 -46q20 -14 39 -33.5t34 -46.5t24.5 -61t9.5 -76v-381h-245z" />
    <glyph glyph-name="sarauuthai" unicode="&#xe39;" 
d="M-837 -466q1 -38 6 -77t23 -71.5t52 -53t93 -20.5q51 0 85.5 13.5t56 44t31 78.5t9.5 117v155l236 46v-200q0 -40 -5 -86t-21 -92t-46 -89t-79 -75.5t-120.5 -52t-170.5 -19.5q-93 0 -163.5 24t-119 66.5t-74.5 100.5t-29 126l-1 17q-5 34 -21 52.5t-34 27.5
q-21 11 -46 12l132 187q37 0 73.5 -13t66 -38.5t48 -64.5t18.5 -90v-25z" />
    <glyph glyph-name="phinthuthai" unicode="&#xe3a;" 
d="M-572 -402q0 38 14 71.5t38 58.5t55 39.5t65 14.5q40 0 73.5 -14.5t58 -39.5t38.5 -58.5t14 -71.5q0 -35 -14 -66.5t-38.5 -55t-58 -37t-73.5 -13.5q-34 0 -65 13.5t-55 37t-38 55t-14 66.5z" />
    <glyph glyph-name="PUCR2005" unicode="&#xe3e;" 
 />
    <glyph glyph-name="bahtthai" unicode="&#xe3f;" horiz-adv-x="1872" 
d="M295 2032h534v282l186 37v-319h29q62 0 129 -9.5t131 -33t121 -62t100 -97t68 -138.5t25 -185q0 -71 -21 -134.5t-60.5 -118t-96.5 -98.5t-129 -75q34 -8 62 -17t53 -21t48 -27t46 -33q51 -38 86 -88t56.5 -105.5t31.5 -114.5t10 -114q0 -83 -22.5 -161t-64 -144.5
t-100.5 -118t-133 -80.5q-34 -14 -67.5 -23.5t-75 -16.5t-96 -11t-130.5 -5v-306h-186v305h-534v2032zM1446 582q0 98 -34 164.5t-92.5 108t-137 61t-167.5 24.5v-727h25q105 0 181.5 26t126.5 74t74 116t24 153zM545 213h284v729h-284v-729zM545 1171h284v648h-284v-648z
M1360 1475q0 93 -21.5 157t-64.5 104.5t-107.5 59.5t-151.5 22v-645q66 4 128 22.5t110 54.5t77.5 91t29.5 134z" />
    <glyph glyph-name="saraethai" unicode="&#xe40;" horiz-adv-x="743" 
d="M249 1573l243 45l3 -1246q0 -53 1 -86.5t3.5 -54t7 -31.5t11.5 -20q11 -14 36 -18.5t47 4.5l42 -149q-35 -14 -69.5 -21t-78.5 -7q-61 0 -103 17t-69.5 44.5t-42 62t-21.5 70t-8 68.5t-1 57z" />
    <glyph glyph-name="saraaethai" unicode="&#xe41;" horiz-adv-x="1358" 
d="M249 1573l243 45l3 -1246q0 -53 1 -86.5t3.5 -54t7 -31.5t11.5 -20q11 -14 36 -18.5t47 4.5l42 -149q-35 -14 -69.5 -21t-78.5 -7q-61 0 -103 17t-69.5 44.5t-42 62t-21.5 70t-8 68.5t-1 57zM864 1573l243 45l3 -1246q0 -53 1 -86.5t3.5 -54t7 -31.5t11.5 -20
q11 -14 36 -18.5t47 4.5l42 -149q-35 -14 -69.5 -21t-78.5 -7q-61 0 -103 17t-69.5 44.5t-42 62t-21.5 70t-8 68.5t-1 57z" />
    <glyph glyph-name="saraothai" unicode="&#xe42;" horiz-adv-x="807" 
d="M287 1300q0 37 -0.5 80t-5 85.5t-13.5 82t-26 68.5q-53 87 -113 154t-113 113.5t-92.5 72.5t-50.5 32q23 80 74 147.5t123.5 117t164 77t195.5 27.5q66 0 133.5 -9t131 -24.5t121.5 -35.5t106 -42l-90 -172q-63 25 -113.5 41.5t-97 26.5t-93.5 14t-102 4
q-102 0 -175.5 -36t-107.5 -95q62 -53 124 -113q53 -52 112.5 -118.5t107.5 -140.5q15 -25 24.5 -57t14 -77t6 -105.5t1.5 -141.5v-904q0 -53 1 -86.5t3.5 -54t7 -31.5t11.5 -20q11 -14 36 -18.5t47 4.5l42 -149q-35 -14 -69.5 -21t-78.5 -7q-61 0 -103 17t-69.5 44.5
t-42 62t-21.5 70t-8 68.5t-1 57z" />
    <glyph glyph-name="saraaimaimuanthai" unicode="&#xe43;" horiz-adv-x="807" 
d="M287 1377q0 66 4.5 109t15 78.5t28.5 70.5t46 86q21 42 48.5 92t52.5 95q29 52 59 104q-9 27 -30.5 55t-54.5 50t-77.5 36t-99.5 14q-56 0 -109.5 -18t-101.5 -49t-88.5 -72.5t-69.5 -89.5l-143 115q51 84 116.5 144t135 98t137 55.5t123.5 17.5q110 0 196.5 -30t149 -81
t100 -119t49.5 -143l-188 -323q-20 -37 -31 -73.5t-16 -72.5t-6 -72t-1 -73v-1009q0 -53 1 -86.5t3.5 -54t7 -31.5t11.5 -20q11 -14 36 -18.5t47 4.5l42 -149q-35 -14 -69.5 -21t-78.5 -7q-61 0 -103 17t-69.5 44.5t-42 62t-21.5 70t-8 68.5t-1 57v1069z" />
    <glyph glyph-name="saraaimaimalaithai" unicode="&#xe44;" horiz-adv-x="807" 
d="M285 1370q-1 151 18 260t47 174q41 99 82 175t78 132q-87 -31 -165 -75.5t-146 -100.5q-37 37 -82 73t-94.5 69t-100.5 61.5t-100 50.5l115 176q31 -14 67 -33.5t73 -43t71.5 -50t62.5 -53.5q48 31 104 60t112.5 53t109 41.5t92.5 25.5l172 -156q-41 -59 -80 -126
q-33 -57 -69 -129.5t-60 -149.5q-20 -66 -32 -123t-18.5 -109t-8.5 -100.5t-2 -97.5l2 -1002q0 -53 1 -86.5t3.5 -54t7 -31.5t11.5 -20q11 -14 36 -18.5t47 4.5l42 -149q-35 -14 -69.5 -21t-78.5 -7q-61 0 -103 17t-69.5 44.5t-42 62t-21.5 70t-8 68.5t-1 57z" />
    <glyph glyph-name="lakkhangyaothai" unicode="&#xe45;" horiz-adv-x="1229" 
d="M53 1417q49 45 108.5 83t126.5 66t140 44t150 16q97 0 172 -32t127 -88t79 -132.5t27 -165.5v-1792l-246 -47v1708q0 39 -2 79.5t-9.5 78.5t-21.5 71t-37.5 58.5t-58.5 40.5t-84 16q-46 0 -95 -9.5t-97 -27t-93 -42.5t-83 -56z" />
    <glyph glyph-name="maiyamokthai" unicode="&#xe46;" horiz-adv-x="1716" 
d="M1225 1110q0 115 -31 184t-96 90l-250 -217l-238 205q-49 -2 -86.5 -21.5t-62.5 -50.5t-38 -70t-13 -79v-78q0 -46 6.5 -94.5t31 -88.5t72.5 -65.5t131 -25.5h32.5t20 0.5t11 1t6.5 2.5l33 -172q-10 -3 -36.5 -8t-70.5 -5q-123 0 -213.5 31t-149.5 90.5t-89 146.5
t-31 199v37q0 92 28 174t86 146.5t146.5 107t210.5 56.5l213 -181l201 181q98 -15 176 -51.5t132.5 -93t83.5 -133t29 -173.5v-1126q0 -106 -10 -197t-35 -156q-46 -111 -129.5 -186t-197.5 -125l-123 164q83 37 132.5 83.5t75.5 109t34 143t8 184.5v1061z" />
    <glyph glyph-name="maitaikhuthai" unicode="&#xe47;" 
d="M-1007 1865q-60 0 -107.5 15.5t-84 42t-63 60.5t-43 71.5t-24.5 75t-8 70.5q0 85 28 150.5t78.5 110t119.5 67.5t151 23h486q33 0 76 7t80 34l91 -141q-51 -40 -100.5 -52t-85.5 -12h-557q-18 0 -48.5 -6t-60.5 -24.5t-51.5 -54t-21.5 -94.5q0 -12 5.5 -35.5t17.5 -48
t32 -44.5t50 -24l210 189l185 -170q9 -9 22.5 -19t28.5 -17t30.5 -8.5t29.5 7.5q18 11 22 29t0.5 38t-13 40t-18.5 35l160 66q26 -57 35 -96.5t11 -62.5q3 -63 -20 -117t-79 -83q-47 -24 -93 -28.5t-89 7t-81.5 36.5t-71.5 59l-61 58z" />
    <glyph glyph-name="maiekthai" unicode="&#xe48;" 
d="M-249 2552h-216v372l216 40v-412z" />
    <glyph glyph-name="maithothai" unicode="&#xe49;" 
d="M-718 3119q15 -5 41.5 -19.5t52 -40.5t44 -64.5t18.5 -92.5q0 -15 -1.5 -40.5t-6 -51.5t-13.5 -50t-24 -36h69q64 0 122 6t111 21.5t103 42t99 66.5l147 -136q-63 -55 -129.5 -88t-140 -51.5t-155 -26t-173.5 -10.5q-56 0 -110.5 1.5t-110.5 11.5l-62 163q19 3 33 17
t23 34t13.5 44.5t4.5 49.5q0 20 -7 38.5t-19 34.5t-27.5 28t-32.5 18z" />
    <glyph glyph-name="maitrithai" unicode="&#xe4a;" 
d="M-540 2939q43 52 95 85t114 33q40 0 72.5 -14t55.5 -38t35.5 -55t12.5 -65q0 -17 -3 -39t-12 -44.5t-26 -43.5t-45 -36q40 6 71 13.5t58 23t52 41.5t52 69l115 -102q-38 -56 -84.5 -93.5t-106.5 -60.5t-135 -33t-170 -10l-41 139q15 3 34.5 14.5t37 28.5t29.5 38t14 42
q0 31 -12 48.5t-37 17.5q-37 0 -85 -34.5t-91 -96.5q-15 27 -36.5 50.5t-45 40.5t-47 26.5t-43.5 9.5q-37 0 -55.5 -20.5t-18.5 -45.5q0 -31 15.5 -55t38.5 -41t49.5 -26t48.5 -9l-29 -143q-60 0 -112.5 19.5t-91 55.5t-61 86.5t-22.5 112.5q0 48 18.5 88.5t50 70t73.5 46
t88 16.5q65 0 108.5 -32t71.5 -78z" />
    <glyph glyph-name="maichattawathai" unicode="&#xe4b;" 
d="M-703 2937h258v173l197 40v-213h266v-163h-266v-222h-197v222h-258v163z" />
    <glyph glyph-name="thanthakhatthai" unicode="&#xe4c;" 
d="M-131 2903q-34 -14 -60 -31.5t-43.5 -41.5t-26.5 -55t-9 -73q0 -56 12.5 -112.5t40.5 -112.5l-225 -37q-19 50 -32 106.5t-13 118.5q0 120 81 206t226 138z" />
    <glyph glyph-name="nikhahitthai" unicode="&#xe4d;" 
d="M-651 2111q0 57 21.5 107t59 87.5t88 59.5t107.5 22t107 -22t87.5 -59.5t59.5 -87.5t22 -107t-22 -107.5t-59.5 -88t-87.5 -59t-107 -21.5t-107.5 21.5t-88 59t-59 88t-21.5 107.5zM-492 2112q0 -24 9.5 -45.5t25.5 -37.5t37.5 -25.5t45.5 -9.5t45.5 9.5t37.5 25.5
t25.5 37.5t9.5 45.5t-9.5 45.5t-25.5 37.5t-37.5 25.5t-45.5 9.5t-45.5 -9.5t-37.5 -25.5t-25.5 -37.5t-9.5 -45.5z" />
    <glyph glyph-name="yamakkanthai" unicode="&#xe4e;" 
d="M-4 2568q-42 -17 -74 -42t-50.5 -61t-22 -83.5t11.5 -108.5q9 -37 24.5 -74.5t24.5 -56.5q-8 -1 -17 -3q-8 -2 -18 -4t-22 -5q-23 -6 -43.5 -20t-34.5 -38t-21 -58.5t-4 -80.5l-213 -20q-5 51 -2.5 96t15.5 84t37.5 72t64.5 59q-14 63 -2 126.5t49.5 120.5t100.5 104.5
t151 78.5z" />
    <glyph glyph-name="fongmanthai" unicode="&#xe4f;" horiz-adv-x="1913" 
d="M139 799q0 112 29 216.5t82 195.5t127 166t164.5 128.5t193.5 83t215 29.5q113 0 217.5 -29.5t195.5 -83t165.5 -128.5t128 -166t83 -195.5t29.5 -216.5t-29.5 -215.5t-83 -194.5t-128 -165.5t-165.5 -127.5t-195.5 -82.5t-217.5 -29.5q-111 0 -214.5 29.5t-194 82.5
t-164.5 127.5t-127 165.5t-82 194.5t-29 215.5zM545 799q0 84 32 158.5t87.5 130t129 88t156.5 32.5q86 0 161 -32.5t130.5 -88t87 -130t31.5 -158.5q0 -85 -31.5 -159t-87 -129t-130.5 -86.5t-161 -31.5q-83 0 -156.5 31.5t-129 86.5t-87.5 129t-32 159zM731 800
q0 -46 17.5 -86t47.5 -70t70 -47.5t86 -17.5t86 17.5t70 47.5t47.5 70t17.5 86t-17.5 86t-47.5 70t-70 47.5t-86 17.5t-86 -17.5t-70 -47.5t-47.5 -70t-17.5 -86zM327 800q0 -86 22.5 -166t63 -149.5t97.5 -126.5t126.5 -97.5t149.5 -63t166 -22.5t166 22.5t149.5 63
t126.5 97.5t97.5 126.5t63 149.5t22.5 166t-22.5 166t-63 149.5t-97.5 126.5t-126.5 97.5t-149.5 63t-166 22.5t-166 -22.5t-149.5 -63t-126.5 -97.5t-97.5 -126.5t-63 -149.5t-22.5 -166z" />
    <glyph glyph-name="zerothai" unicode="&#xe50;" horiz-adv-x="1982" 
d="M995 -29q-170 0 -319.5 51.5t-260.5 148t-175 234.5t-64 312q0 112 32 210.5t89 180.5t134.5 146.5t168 108.5t190.5 67.5t201 23.5q110 0 213.5 -23.5t195 -68.5t168 -110.5t131.5 -148.5t85.5 -183.5t30.5 -214.5q0 -119 -31.5 -219.5t-88 -182t-134 -144t-168.5 -104
t-192.5 -63t-205.5 -21.5zM422 750q0 -105 23.5 -189.5t65 -149t97 -110.5t119 -75.5t132 -43.5t136.5 -14q61 0 127.5 12t130.5 38t121.5 66t100.5 95.5t68.5 127.5t25.5 161q0 153 -48 265t-128 185t-185.5 108.5t-220.5 35.5q-64 0 -130.5 -14t-129 -41.5t-118 -70
t-97.5 -99t-66 -128.5t-24 -159z" />
    <glyph glyph-name="onethai" unicode="&#xe51;" horiz-adv-x="2022" 
d="M1592 725q0 147 -45.5 251t-122 169t-176.5 95t-209 30q-65 0 -130.5 -10t-126.5 -30t-114.5 -50.5t-92.5 -71.5t-62 -93t-23 -114q0 -51 17.5 -100t50.5 -87.5t79 -62.5t103 -24q9 0 25.5 0.5t31.5 3.5l41 -160q-18 -9 -44 -10.5t-54 -1.5q-117 0 -209.5 33.5t-157 95
t-99 147.5t-34.5 191q0 74 28 142.5t78.5 128.5t122 109.5t158.5 85t187 55t209 19.5q151 0 271.5 -26.5t212.5 -74t157 -114t106.5 -146.5t60.5 -171.5t19 -188.5q0 -136 -36 -247t-101 -197.5t-155 -150.5t-199.5 -105.5t-234 -61.5t-257.5 -20q-84 0 -180.5 11.5t-196 39
t-199 72.5t-190.5 111l90 172q64 -53 144.5 -92t166 -65t171.5 -39t161 -13q169 0 308.5 38t239.5 111t155 177.5t55 238.5z" />
    <glyph glyph-name="twothai" unicode="&#xe52;" horiz-adv-x="2022" 
d="M1914 688q0 -116 -29.5 -213.5t-82 -176t-125 -138t-159 -99.5t-183 -60.5t-196.5 -20.5h-151q-203 0 -364.5 59t-274.5 161t-173.5 239t-60.5 294v508q0 77 -9 133.5t-20 94.5q-12 44 -28 75l238 62q15 -32 26 -68q10 -31 18.5 -71t8.5 -83v-679q0 -97 46.5 -191
t136.5 -168.5t221 -120t300 -45.5q109 0 197 19t157 52.5t119 78t82.5 95t48 104.5t15.5 106v336q0 63 -20.5 109.5t-54 79.5t-76 52.5t-87.5 28.5l-221 -192l-213 180q-29 0 -66.5 -16.5t-71 -49.5t-56.5 -81t-23 -111v-127q0 -46 5 -89.5t22 -77.5t49.5 -54.5t87.5 -20.5
l-29 -172q-93 0 -157.5 27t-106.5 70.5t-66 99t-35 111.5t-13.5 107.5t-2.5 88.5q0 100 37 186.5t102.5 154t154.5 113t194 62.5l188 -164l176 164q106 -6 201.5 -41.5t167.5 -94t114 -136.5t42 -170v-320z" />
    <glyph glyph-name="threethai" unicode="&#xe53;" horiz-adv-x="2022" 
d="M724 1200q-30 0 -64.5 -9t-68.5 -30t-65.5 -56.5t-56 -89.5t-39 -127.5t-14.5 -170.5v-82q0 -43 2.5 -92t10.5 -98t24 -93.5t43.5 -79t68 -55t97.5 -20.5q59 0 103 12l32 -197q-24 -6 -69 -13t-95 -7q-105 0 -180.5 31.5t-126.5 85.5t-82 124.5t-47 149t-21 159t-5 154.5
q0 155 33 282t103.5 221.5t179.5 153t261 77.5l254 -201l279 201q135 -11 237.5 -59t172 -123.5t104.5 -173t35 -206.5v-368q0 -86 -13 -168t-41 -153t-72.5 -126.5t-107.5 -89.5l-139 193q29 31 53 64.5t41.5 74.5t27 92t9.5 117v364q0 69 -25.5 129.5t-66 105.5t-92 71
t-103.5 26l-299 -213z" />
    <glyph glyph-name="fourthai" unicode="&#xe54;" horiz-adv-x="2022" 
d="M1093 197q-43 23 -79 56t-62.5 73t-41 85t-14.5 93t14.5 103t53.5 104t108.5 85.5t180.5 47.5l45 -156q-46 -6 -77 -22.5t-49.5 -40t-26 -52t-7.5 -57.5q0 -60 19 -111.5t52 -92.5t78 -70.5t97 -44.5h373l-54 -197h-868q-132 0 -236 28.5t-182.5 76.5t-134 112.5
t-90 136.5t-50.5 147.5t-16 145.5v139q0 154 55.5 276t158 207.5t247 131t322.5 45.5h655q75 0 131 8.5t94 19.5q44 12 74 29l62 -213q-32 -17 -68 -29q-31 -11 -71 -19.5t-83 -8.5h-823q-118 0 -212 -33.5t-160 -89t-101 -128.5t-35 -151v-172q0 -98 32.5 -182.5
t96.5 -146.5t158 -97.5t217 -35.5h217z" />
    <glyph glyph-name="fivethai" unicode="&#xe55;" horiz-adv-x="2022" 
d="M862 1444q-8 20 -15.5 46t-7.5 49q0 66 25 124t68 101t101 68t124 25t124 -25t101 -68t68 -101t25 -124q0 -32 -6 -55t-16 -38h108q75 0 131 8.5t94 19.5q44 12 74 29l61 -213q-31 -17 -67 -29q-31 -11 -71 -19.5t-83 -8.5h-823q-119 0 -212.5 -33.5t-158 -89t-99 -128.5
t-34.5 -151v-172q0 -98 32 -182.5t94.5 -146.5t155 -97.5t214.5 -35.5h225q-45 24 -80.5 58t-60.5 74.5t-38.5 85.5t-13.5 93t14.5 102t53.5 102.5t108.5 84.5t180.5 47l45 -156q-48 -6 -79 -23.5t-49 -42t-25 -54t-7 -60.5q0 -59 19.5 -109t53 -89.5t78 -68.5t95.5 -44h364
l-53 -197h-868q-133 0 -237.5 28.5t-183 76.5t-133.5 112.5t-89.5 136.5t-50 147t-15.5 146v139q0 150 49 269.5t143.5 203.5t232 131.5t314.5 53.5zM1010 1527q0 -30 11.5 -57t31.5 -47t47 -31.5t57 -11.5t57 11.5t47 31.5t31.5 47t11.5 57t-11.5 57t-31.5 47t-47 31.5
t-57 11.5t-57 -11.5t-47 -31.5t-31.5 -47t-11.5 -57z" />
    <glyph glyph-name="sixthai" unicode="&#xe56;" horiz-adv-x="2022" 
d="M427 1298q147 71 314.5 113.5t361.5 42.5q204 0 344.5 -55t228 -150.5t126 -223t38.5 -271.5q0 -168 -59.5 -309.5t-166.5 -245t-256 -161.5t-329 -58q-73 0 -155.5 10.5t-164 34t-156 62t-132 94.5t-91.5 132t-34 174q0 95 34 164.5t96.5 115t151 67.5t197.5 22l53 -172
h-41q-66 0 -114 -15t-79 -41t-46 -61t-15 -75q0 -58 21.5 -103t58 -80t85 -59.5t102 -40t108.5 -22.5t105 -7q106 0 208.5 35.5t183.5 105.5t131 172t50 236q0 135 -33.5 233t-95 161t-147.5 93.5t-191 32.5q-100 0 -199 -12t-196.5 -39.5t-191.5 -71t-183 -106.5l-279 455
l185 114z" />
    <glyph glyph-name="seventhai" unicode="&#xe57;" horiz-adv-x="2022" 
d="M1131 131q41 40 67.5 79t42.5 76.5t24 72.5t13 67q3 20 6 56t5.5 78t4 84.5t1.5 76.5q0 126 -19 215t-53 145.5t-80.5 84t-101.5 30.5l-234 -209l-225 213q-64 -8 -108.5 -39t-75 -76t-48.5 -100t-27.5 -112.5t-12 -113t-2.5 -100.5q0 -42 2 -92.5t10 -101.5t23.5 -99.5
t42.5 -86t68 -60t99 -22.5q28 0 54.5 3t48.5 9l32 -197q-24 -6 -67 -13t-92 -7q-107 0 -182.5 33.5t-127 89.5t-82 129.5t-46.5 153t-20.5 160t-4.5 151.5q0 334 137.5 512t398.5 209l205 -201l213 196q111 -15 192 -47.5t138 -80.5t92.5 -110.5t55.5 -139t27 -165.5t7 -190
q0 -31 -1.5 -68t-3.5 -72.5t-5 -65t-6 -44.5q-5 -26 -10.5 -54t-12 -54.5t-15.5 -49.5t-19 -38q70 43 120 97.5t81.5 115t46 123.5t14.5 123v622q0 45 2.5 87t5.5 75q4 39 8 72l238 -58q-7 -34 -11 -82q-4 -41 -7 -99.5t-3 -133.5v-455q0 -138 -38.5 -259t-117 -218
t-197 -167t-278.5 -105z" />
    <glyph glyph-name="eightthai" unicode="&#xe58;" horiz-adv-x="2022" 
d="M406 664v-119q0 -69 24.5 -130.5t64 -107t89 -72t100.5 -26.5l303 217l279 -217q55 0 108.5 15t96 51.5t68.5 99t26 157.5q0 45 -8.5 91t-34 83.5t-73.5 62t-126 26.5l74 168q90 -6 155 -27t110 -53t72.5 -73t42.5 -87t20 -96t5 -99q0 -267 -143.5 -405.5t-417.5 -138.5
l-254 196l-278 -196q-135 9 -237.5 58t-170.5 130t-102.5 191.5t-34.5 242.5v180q0 154 55.5 276t157.5 207.5t246.5 131t322.5 45.5h688q75 0 131 8.5t94 19.5q44 12 74 29l62 -213q-32 -17 -68 -29q-31 -11 -70.5 -19.5t-82.5 -8.5h-856q-119 0 -213.5 -33.5t-161 -89
t-102 -128.5t-35.5 -151v-167z" />
    <glyph glyph-name="ninethai" unicode="&#xe59;" horiz-adv-x="2023" 
d="M1770 102l-188 -106l-532 983q-31 57 -67 104t-78 81.5t-89.5 53.5t-101.5 19q-62 0 -120.5 -26.5t-105 -88t-74.5 -162t-28 -247.5q0 -43 1.5 -98t9.5 -113t25 -113.5t47 -99t76.5 -70t114.5 -26.5q28 0 54.5 3t48.5 9l33 -197q-28 -6 -74 -13t-98 -7
q-106 0 -182.5 30.5t-129.5 83t-86 123t-51.5 149.5t-24.5 162.5t-6 163.5q0 372 142.5 557t431.5 185q61 0 118.5 -10.5t111 -35t104.5 -66.5t100 -105q9 66 34 108t60.5 66.5t79.5 33.5t92 9h148q75 0 131.5 8.5t94.5 19.5q45 12 77 29l57 -213q-30 -14 -65 -25
q-30 -9 -69.5 -16.5t-82.5 -7.5h-229q-46 0 -81 -11t-59 -37.5t-37 -70.5t-16 -110z" />
    <glyph glyph-name="angkhankhuthai" unicode="&#xe5a;" horiz-adv-x="2130" 
d="M1642 1573l246 45v-1618h-246v1573zM709 905q66 0 127 17t116 46t103 67t88 79v459l246 45v-1618h-246v889q-93 -90 -221 -139.5t-271 -49.5q-135 0 -236.5 36.5t-169 96.5t-101 136.5t-33.5 156.5q0 120 43 211t115.5 152.5t169 93t204.5 31.5q18 0 37.5 -2t36 -4.5
t28.5 -5.5t17 -5l-45 -180q-26 3 -44 4.5l-30 2.5t-20.5 1h-16.5q-62 0 -108.5 -17.5t-78 -49.5t-47.5 -76t-16 -98q0 -62 23.5 -113t68.5 -88t110.5 -57.5t150.5 -20.5z" />
    <glyph glyph-name="khomutthai" unicode="&#xe5b;" horiz-adv-x="3723" 
d="M2998 782q-24 -29 -55.5 -68t-64.5 -82.5t-63.5 -88t-53.5 -84.5q-28 48 -59 97.5t-62.5 97.5t-63.5 92t-61 81q-31 -37 -68 -84t-74 -102.5t-71.5 -118t-60.5 -129.5q-25 66 -61 133.5t-77 131t-84 120t-82 99.5q0 -128 -32.5 -245t-92.5 -217.5t-145 -182.5
t-188.5 -140t-223.5 -89.5t-251 -31.5q-137 0 -252.5 31t-208.5 86t-163 129t-117 160t-71 180t-24 188q0 84 21.5 170t64 166t104.5 150.5t143.5 122.5t181.5 82t218 30q166 0 284.5 -46.5t194.5 -122.5t112 -173t36 -198q0 -100 -34.5 -178.5t-96 -132.5t-146.5 -82.5
t-186 -28.5q-56 0 -87 4.5t-52 7.5l41 160q9 0 29.5 -2t35.5 -2q61 0 112 12t87 40.5t56 77t20 120.5q0 163 -97 250.5t-272 97.5q-126 0 -223.5 -43t-164.5 -117.5t-101.5 -173.5t-34.5 -211q0 -106 41 -204.5t118.5 -174t189.5 -121t253 -45.5q133 0 239.5 35t189 97.5
t141.5 148.5t97 188t56 216t18 233l168 82q48 -46 95 -100.5t89 -109t76 -106.5t56 -94q24 37 57 82.5t69.5 94t74.5 97t73 91.5q34 -43 68.5 -91.5t66.5 -96.5t60.5 -93t50.5 -80q21 28 47.5 59.5t51.5 61t47 54t34 38.5h414q46 0 81.5 10t60.5 23q29 14 50 33l62 -205
q-31 -18 -64 -31q-29 -12 -66 -21.5t-75 -9.5z" />
    <glyph glyph-name="ZWSP" unicode="&#x200b;" 
 />
    <glyph glyph-name="endash" unicode="&#x2013;" horiz-adv-x="1383" 
d="M1383 907v-170h-1383v170h1383z" />
    <glyph glyph-name="emdash" unicode="&#x2014;" horiz-adv-x="3292" 
d="M3022 907v-170h-2758v170h2758z" />
    <glyph glyph-name="quoteleft" unicode="&#x2018;" horiz-adv-x="766" 
d="M598 1966q-90 -43 -139 -109t-62 -153q13 3 18.5 3.5t14.5 0.5q32 0 62.5 -15t54 -40.5t37.5 -60t14 -72.5q0 -45 -16.5 -83.5t-45.5 -67.5t-67.5 -45.5t-83.5 -16.5q-51 0 -93 21t-72 58.5t-47 89t-17 113.5q0 85 29.5 163t78.5 144t111.5 117t128.5 80z" />
    <glyph glyph-name="quoteright" unicode="&#x2019;" horiz-adv-x="766" 
d="M147 1401q90 40 139.5 107t61.5 151q-12 -3 -19 -3.5t-14 -0.5q-34 0 -64.5 15.5t-53.5 41.5t-36.5 60t-13.5 71q0 46 16.5 85t45.5 67.5t68 44.5t83 16q51 0 93.5 -21t72.5 -58.5t47 -88t17 -110.5q0 -86 -29.5 -165t-78.5 -145t-111.5 -116.5t-128.5 -81.5z" />
    <glyph glyph-name="quotedblleft" unicode="&#x201c;" horiz-adv-x="1348" 
d="M598 1966q-90 -43 -139 -109t-62 -153q13 3 18.5 3.5t14.5 0.5q32 0 62.5 -15t54 -40.5t37.5 -60t14 -72.5q0 -45 -16.5 -83.5t-45.5 -67.5t-67.5 -45.5t-83.5 -16.5q-51 0 -93 21t-72 58.5t-47 89t-17 113.5q0 85 29.5 163t78.5 144t111.5 117t128.5 80zM1180 1966
q-90 -43 -139.5 -109t-61.5 -153q12 3 19.5 3.5t13.5 0.5q34 0 64.5 -15t53.5 -40.5t36.5 -60t13.5 -72.5q0 -45 -16.5 -83.5t-45.5 -67.5t-68 -45.5t-83 -16.5q-51 0 -93.5 21t-72.5 58.5t-47 89t-17 113.5q0 85 29.5 163t78.5 144t111.5 117t128.5 80z" />
    <glyph glyph-name="quotedblright" unicode="&#x201d;" horiz-adv-x="1348" 
d="M737 1401q90 40 139.5 107t61.5 151q-12 -3 -19.5 -3.5t-13.5 -0.5q-34 0 -64.5 15.5t-53.5 41.5t-36.5 60t-13.5 71q0 46 16.5 85t45.5 67.5t67.5 44.5t83.5 16q51 0 93 -21t72.5 -58.5t47.5 -88t17 -110.5q0 -86 -29.5 -165t-78.5 -145t-112 -116.5t-129 -81.5z
M156 1401q86 40 137 107t63 151q-12 -3 -19.5 -3.5t-17.5 -0.5q-32 0 -61.5 15.5t-52 41.5t-36 60t-13.5 71q0 46 16.5 85t45.5 67.5t67.5 44.5t83.5 16q51 0 93 -21t72 -58.5t47 -88t17 -110.5q0 -86 -30 -165t-79.5 -145t-112 -116.5t-126.5 -81.5z" />
    <glyph glyph-name="bullet" unicode="&#x2022;" horiz-adv-x="1248" 
d="M1138 767q0 -109 -40 -203.5t-109.5 -165t-163 -111t-199.5 -40.5q-108 0 -202 40.5t-163.5 111t-110 165t-40.5 203.5q0 108 40.5 202t110 164t163.5 110.5t202 40.5q106 0 199.5 -40.5t163 -110.5t109.5 -164t40 -202z" />
    <glyph glyph-name="Euro" unicode="&#x20ac;" horiz-adv-x="1749" 
d="M90 1323h196q38 162 114 295.5t182 229t238 148t282 52.5q145 0 273.5 -43t234.5 -121l-131 -155q-92 64 -181.5 95t-199.5 31q-180 0 -303 -87t-197 -261q-37 -84 -58 -184h746v-172h-768q-6 -83 -6 -180v-54t2 -49h772v-172h-754q8 -41 19 -77.5t27 -73.5
q38 -97 95 -168t127.5 -117.5t151 -69t166.5 -22.5q57 0 107.5 7t98.5 22.5t95 39.5t97 58l131 -164q-124 -80 -269 -122t-297 -42q-167 0 -319.5 68t-269.5 198q-84 95 -136 212t-78 251h-188v172h165q-2 35 -3.5 69.5t-1.5 70.5t1.5 72t5.5 71h-167v172z" />
    <glyph glyph-name="trademark" unicode="&#x2122;" horiz-adv-x="2879" 
d="M569 1831h-397v192h1012l-78 -192h-340v-1020h-197v1020zM1368 2023h311l336 -921l336 921h299v-1212h-192v1020h-9l-372 -1020h-135l-373 1020h-8v-1020h-193v1212z" />
    <glyph glyph-name="uni25CC" unicode="&#x25cc;" horiz-adv-x="2142" 
d="M827 573l-151 -49l53 152q41 -62 98 -103zM995 1319l74 143l70 -139q-33 4 -66 4q-37 0 -78 -8zM1135 500l-66 -135l-65 135q32 -8 69 -8q33 0 62 8zM1487 979l131 -70l-131 -61q4 29 4 61q0 37 -4 70zM664 844l-144 74l144 69q-5 -37 -5 -78q0 -32 5 -65zM737 1159
l-41 148l144 -50q-62 -40 -103 -98zM1405 655l41 -131l-131 41q53 37 90 90zM1311 1257l155 50l-53 -152q-41 57 -102 102z" />
    <glyph glyph-name="thothannobasethai" unicode="&#xf700;" horiz-adv-x="1487" 
d="M1245 455q0 -49 -3 -104t-17 -108t-42 -101.5t-78 -85.5t-126 -59t-184 -22q-22 0 -45.5 2t-46 6t-41.5 8t-31 9l-205 762q-17 63 -37.5 100t-38.5 57q-21 23 -43 31l172 131q30 -18 58 -50q24 -27 51 -72.5t47 -114.5l184 -664q63 0 99 22t54 64t22.5 104t4.5 142v582
q0 75 -9 137t-40.5 106t-93.5 68.5t-168 24.5q-81 0 -165 -19t-159.5 -47t-138 -59.5t-101.5 -56.5l-112 165q77 51 162 91.5t175.5 69.5t184 44.5t187.5 15.5q42 0 83 -3.5t79 -11.5q31 -6 56.5 -10t48.5 -4t47 4t53 13q66 22 126.5 64.5t120.5 107.5l168 -143
q-52 -62 -136.5 -110t-199.5 -79q29 -32 44.5 -73t23 -85.5t9 -91t1.5 -90.5v-667z" />
    <glyph glyph-name="yoyingnobasethai" unicode="&#xf70f;" horiz-adv-x="2470" 
d="M1671 -20q-114 1 -204 28.5t-153 80.5t-96.5 133t-33.5 188v663q0 51 -2.5 97t-12 84.5t-29.5 69.5t-54.5 52.5t-86.5 33t-127 11.5q-65 0 -123.5 -10t-111.5 -26t-101.5 -36.5t-93.5 -41.5q8 -15 19 -36.5t21.5 -51t18 -68.5t7.5 -90v-647q0 -57 6.5 -103t31 -79
t73 -50.5t131.5 -17.5l32 -172q-12 -3 -42 -7.5t-64 -4.5q-86 0 -161.5 25t-131.5 73t-88.5 119t-32.5 163v627q0 42 -1 73.5t-4.5 57t-10 46t-17.5 40.5l-106 148q87 64 180.5 115.5t191 87.5t198.5 55.5t204 19.5q105 0 184.5 -17t139.5 -52t102.5 -88t73.5 -125
q12 -28 19 -64.5t10 -76t3.5 -77.5t0.5 -69v-602q0 -69 13 -126t44.5 -97t85.5 -62t135 -22t133.5 22t83 62t42 97t11.5 126v1118l246 41v-1208q0 -116 -47.5 -197.5t-125.5 -133t-177.5 -75.5t-202.5 -24z" />
    <glyph glyph-name="saraulowthai" unicode="&#xf718;" 
d="M-491 -1333v351q0 38 -18.5 63.5t-40.5 40.5q-26 18 -59 28l149 173q59 -13 107 -46q20 -14 39 -33.5t34 -46.5t24.5 -61t9.5 -76v-393h-245z" />
    <glyph glyph-name="sarauulowthai" unicode="&#xf719;" 
d="M-841 -978q0 -34 4 -72.5t21 -71t52 -54t97 -21.5q49 0 83.5 13.5t56.5 44t32 78.5t10 117v214l236 37v-250q0 -40 -5 -86t-21 -92t-46 -89t-79 -75.5t-120.5 -52t-170.5 -19.5q-97 0 -169 24.5t-119.5 69t-71.5 107t-24 139.5l-1 19q0 42 -17 65.5t-37 34.5
q-24 13 -53 16l132 187q37 0 74.5 -14t67.5 -41t49 -66.5t19 -90.5v-71z" />
    <glyph glyph-name="phinthulowthai" unicode="&#xf71a;" 
d="M-569 -864q0 38 14 71.5t38 58.5t55 39.5t65 14.5q40 0 73.5 -14.5t58 -39.5t38.5 -58.5t14 -71.5q0 -35 -14 -66.5t-38.5 -55t-58 -37t-73.5 -13.5q-34 0 -65 13.5t-55 37t-38 55t-14 66.5z" />
    <glyph glyph-name="lochula.short" unicode="&#xf71d;" horiz-adv-x="2135" 
d="M1646 1085q-1 75 -10.5 137t-42 106.5t-95.5 68.5t-171 24q-53 0 -107.5 -10.5t-113.5 -26.5l-70 177q78 31 171 46t210 15q58 0 123.5 6.5t133.5 28t137 61t135 105.5l168 -160q-62 -65 -150.5 -111t-194.5 -77q45 -31 69.5 -74.5t36.5 -91.5t14.5 -96.5t2.5 -90.5v-622
q0 -56 -6 -116.5t-23.5 -119.5t-49 -112t-83 -93.5t-125.5 -64t-175 -23.5q-93 0 -157 22.5t-107 56.5t-69.5 73.5t-44.5 73.5q-41 -68 -93.5 -112.5t-111 -70.5t-121.5 -36.5t-124 -10.5q-86 0 -151.5 32t-110 89t-67.5 136t-23 173v832q0 85 -10 146.5t-21 103.5
q-14 48 -31 82l242 69q18 -36 33 -76q12 -35 22.5 -80t10.5 -94v-954q0 -59 10.5 -107.5t31.5 -83.5t52.5 -54.5t73.5 -19.5q63 0 115.5 22.5t90.5 66.5t59 107.5t21 146.5v590l246 48v-659q0 -59 10.5 -116.5t37 -103t72 -74t114.5 -28.5q63 0 104.5 20t66.5 63t35.5 110
t10.5 162z" />
    <glyph glyph-name="rulakkhangyao" unicode="&#xf881;" horiz-adv-x="2856" 
d="M1676 1417q49 45 108.5 83t126.5 66t140 44t150 16q97 0 172 -32t127 -88t79 -132.5t27 -165.5v-1792l-246 -47v1708q0 39 -2 79.5t-9.5 78.5t-21.5 71t-37.5 58.5t-58.5 40.5t-84 16q-46 0 -95 -9.5t-97 -27t-93 -42.5t-83 -56zM373 922q-2 66 -9.5 110.5t-19.5 76
t-29 55.5t-37 48l-110 140q80 61 172.5 112.5t193.5 88t209 57t219 20.5q211 0 346.5 -68.5t194.5 -213.5q12 -32 19.5 -70.5t11.5 -79.5t5 -83.5t1 -82.5v-1616l-246 -47v1651q0 57 -3.5 109t-16 96.5t-36 80.5t-63 61.5t-97.5 39.5t-140 14q-118 0 -230.5 -31t-224.5 -83
q21 -22 45 -56t44 -74t33 -84t13 -85v-668q0 -92 -32 -157t-88.5 -105.5t-133.5 -59t-168 -18.5l-53 188q83 0 130 18.5t70 53t28.5 83t5.5 108.5z" />
    <glyph glyph-name="lulakkhangyao" unicode="&#xf882;" horiz-adv-x="2829" 
d="M365 922q-2 66 -9.5 110.5t-19.5 76t-29 55.5t-37 48l-110 140q80 61 172.5 112.5t193.5 88t209 57t219 20.5q211 0 346.5 -68.5t194.5 -213.5q12 -32 19.5 -70.5t11.5 -79.5t5 -83.5t1 -82.5v-1618l-246 -45v1651q0 57 -3.5 109t-16 96.5t-36 80.5t-63 61.5t-97.5 39.5
t-140 14q-118 0 -230.5 -31t-224.5 -83q21 -22 45 -56t44 -74t33 -84t13 -85v-668q0 -92 -32 -157t-88.5 -105.5t-133.5 -59t-168 -18.5l-53 188q83 0 130 18.5t70 53t28.5 83t5.5 108.5zM1651 1417q49 45 108.5 83t126.5 66t140 44t150 16q97 0 172 -32t127 -88t79 -132.5
t27 -165.5v-1792l-246 -47v1708q0 39 -2 79.5t-9.5 78.5t-21.5 71t-37.5 58.5t-58.5 40.5t-84 16q-46 0 -95 -9.5t-97 -27t-93 -42.5t-83 -56z" />
    <glyph glyph-name="yamakkanleftthai" 
d="M-565 2638q-68 -28 -108 -76.5t-40 -128.5q0 -56 18.5 -109t43.5 -112q-8 -1 -17 -3q-8 -2 -18.5 -4t-22.5 -5q-21 -6 -40 -19.5t-32.5 -36.5t-21.5 -57.5t-8 -83.5l-213 -21q-6 25 -7 47t-1 44q0 77 30.5 129t92.5 92q-3 18 -6 34.5t-3 34.5q0 55 20 108.5t59 101
t96.5 86.5t132.5 65z" />
    <glyph glyph-name="saraamleft" horiz-adv-x="1245" 
d="M66 1417q49 45 108 83t126 66t140 44t150 16q97 0 172 -32t127 -88t79 -132.5t27 -165.5v-1208h-245v1077q0 39 -2 79.5t-9.5 79t-22 72t-38.5 59t-60 40t-86 14.5q-46 0 -94.5 -10t-96.5 -28t-92 -43t-81 -54zM-1189 2111q0 57 21.5 107t59 87.5t88 59.5t107.5 22
t107 -22t87.5 -59.5t59.5 -87.5t22 -107t-22 -107.5t-59.5 -88t-87.5 -59t-107 -21.5t-107.5 21.5t-88 59t-59 88t-21.5 107.5zM-1030 2112q0 -24 9.5 -45.5t25.5 -37.5t37.5 -25.5t45.5 -9.5t45.5 9.5t37.5 25.5t25.5 37.5t9.5 45.5t-9.5 45.5t-25.5 37.5t-37.5 25.5
t-45.5 9.5t-45.5 -9.5t-37.5 -25.5t-25.5 -37.5t-9.5 -45.5z" />
    <glyph glyph-name="uni0E33.alt1" horiz-adv-x="1245" 
d="M66 1417q49 45 108 83t126 66t140 44t150 16q97 0 172 -32t127 -88t79 -132.5t27 -165.5v-1208h-245v1077q0 39 -2 79.5t-9.5 79t-22 72t-38.5 59t-60 40t-86 14.5q-46 0 -94.5 -10t-96.5 -28t-92 -43t-81 -54zM-1189 2111q0 57 21.5 107t59 87.5t88 59.5t107.5 22
t107 -22t87.5 -59.5t59.5 -87.5t22 -107t-22 -107.5t-59.5 -88t-87.5 -59t-107 -21.5t-107.5 21.5t-88 59t-59 88t-21.5 107.5zM-1030 2112q0 -24 9.5 -45.5t25.5 -37.5t37.5 -25.5t45.5 -9.5t45.5 9.5t37.5 25.5t25.5 37.5t9.5 45.5t-9.5 45.5t-25.5 37.5t-37.5 25.5
t-45.5 9.5t-45.5 -9.5t-37.5 -25.5t-25.5 -37.5t-9.5 -45.5z" />
    <glyph glyph-name="zero.alt1" horiz-adv-x="1676" 
d="M840 -29q-167 0 -295.5 58.5t-215.5 168t-132 266t-45 351.5t47.5 350t136 262.5t215.5 165t285 57.5q168 0 296.5 -58.5t215.5 -168.5t131.5 -267t44.5 -354q0 -194 -47 -348t-135.5 -261t-215 -164.5t-286.5 -57.5zM408 860q0 -177 25 -304.5t77.5 -209.5t135 -121
t198.5 -39q103 0 182.5 34.5t133.5 105.5t81.5 179t27.5 256q0 177 -25 304t-78 208.5t-136 119.5t-198 38q-104 0 -183 -34t-132.5 -104t-81 -177.5t-27.5 -255.5z" />
    <glyph glyph-name="one.alt1" horiz-adv-x="1365" 
d="M161 1249q46 23 93.5 51t93.5 58.5t89.5 61.5t82.5 60q90 68 174 138h176v-1417h346l-45 -201h-916v201h361v1114q-46 -31 -105 -64t-116 -62t-106 -50.5t-75 -28.5z" />
    <glyph glyph-name="two.alt1" horiz-adv-x="1676" 
d="M1425 225l-49 -225h-1106v201q73 56 166.5 128t191.5 153t192 168.5t167.5 175.5t118.5 172.5t45 160.5q0 136 -84 203.5t-248 67.5q-55 0 -107.5 -11.5t-110 -37.5t-124 -68.5t-149.5 -103.5l-82 167q86 74 164 127t155 86.5t155.5 49.5t164.5 16q123 0 221.5 -31
t167.5 -89.5t106 -144t37 -194.5q0 -66 -9.5 -126t-40 -124t-87 -135t-149.5 -158t-228.5 -194t-323.5 -242q59 3 130.5 5.5t154.5 2.5h561z" />
    <glyph glyph-name="three.alt1" horiz-adv-x="1577" 
d="M527 773q40 -5 84 -7.5t87 -2t82.5 4.5t69.5 13q67 20 116.5 49.5t82.5 71t49 97t16 129.5q0 76 -26 136t-73 101.5t-113 63t-146 21.5q-54 0 -116 -10.5t-126.5 -35.5t-128 -65t-120.5 -98l-90 160q54 55 126 100.5t154.5 77.5t171 50t174.5 18q127 0 231.5 -37.5
t179 -104.5t115 -159t40.5 -201q0 -81 -23 -156t-69 -137t-115.5 -108t-161.5 -69q114 -21 193.5 -64t129.5 -101.5t72.5 -130t22.5 -151.5q0 -124 -40 -223t-109 -175.5t-162.5 -131.5t-201 -90t-223.5 -51.5t-231 -16.5q-53 0 -102.5 3.5t-102.5 12.5l-61 198
q24 -5 51.5 -9t61.5 -6.5t75.5 -4t93.5 -1.5q187 0 318.5 42.5t212.5 113t116 160t31 184.5q-9 181 -175 272.5t-497 91.5z" />
    <glyph glyph-name="four.alt1" horiz-adv-x="1654" 
d="M929 1621h263l-586 -1105q-25 -47 -58.5 -98t-64.5 -95q-36 -51 -74 -101q41 1 80 2q33 1 67.5 1.5t57.5 0.5h424v65q0 12 0.5 36.5t1 56t1.5 67.5t2 70.5t2 65t2 52.5l16 344l226 70v-611q0 -62 -0.5 -102.5t-1.5 -66.5q-1 -30 -2 -47q31 1 59 2q24 1 49.5 1.5t42.5 0.5
h127l-53 -230h-102q-13 0 -33.5 0.5t-40.5 1.5q-24 1 -49 2v-143v-254l-251 -84v305q0 14 0.5 43.5t1.5 58.5q1 34 2 74q-41 -1 -78 -2q-32 -1 -63 -1.5t-46 -0.5h-684v197z" />
    <glyph glyph-name="five.alt1" horiz-adv-x="1598" 
d="M445 1620h895l-37 -213h-643l-95 -557q28 4 61 8q28 3 64 6t76 3q135 0 250 -35.5t198.5 -108.5t131 -183t47.5 -259q0 -174 -66 -310t-184.5 -230t-283.5 -143.5t-363 -49.5q-37 0 -67 2t-58 6.5t-55 10.5t-58 14l-45 214q47 -18 104 -31.5t138 -13.5q160 0 285.5 37
t212.5 105.5t132.5 167t45.5 221.5q0 94 -33.5 165.5t-93 120t-142.5 73t-182 24.5q-58 0 -117 -6.5t-112.5 -15.5t-96.5 -19.5t-70 -17.5z" />
    <glyph glyph-name="six.alt1" horiz-adv-x="1633" 
d="M157 733q0 192 47 373.5t142 340t238 286.5t335 212q28 12 66 26.5t76.5 28t72 23.5t51.5 13l58 -165q-34 -9 -71.5 -22.5t-71.5 -27t-61.5 -25.5t-41.5 -19q-112 -57 -199.5 -127.5t-155 -153.5t-115.5 -179.5t-80 -206.5q87 74 200.5 112.5t230.5 38.5q135 0 245.5 -49
t189 -136.5t121.5 -208.5t43 -265q0 -136 -50 -252t-138 -201t-208 -133.5t-260 -48.5q-157 0 -280 55t-208.5 155.5t-130.5 242t-45 313.5zM833 1089q-99 0 -201 -41t-201 -118q-2 -29 -4 -60q-2 -27 -3 -60t-1 -65q0 -59 7 -126t24.5 -134t47 -129t73.5 -109t105 -75.5
t141 -28.5q91 0 163.5 32.5t123.5 92t78 142.5t27 184q0 98 -19.5 187.5t-64.5 158t-117.5 109t-178.5 40.5z" />
    <glyph glyph-name="seven.alt1" horiz-adv-x="1633" 
d="M185 1400l70 217h1257l-61 -254q-185 -217 -329.5 -424.5t-252.5 -419.5t-182 -435.5t-117 -472.5l-290 -80q45 271 135 527.5t212.5 493t272 450t313.5 399.5q-38 -2 -78 -3q-35 -1 -77.5 -1.5t-85.5 -0.5z" />
    <glyph glyph-name="eight.alt1" horiz-adv-x="1640" 
d="M1385 1552q0 -101 -33.5 -176t-88.5 -131.5t-124 -98.5t-139 -77l135 -70q184 -95 274.5 -226t90.5 -281q0 -109 -43.5 -206.5t-130 -171t-214.5 -116.5t-297 -43q-163 0 -288.5 40.5t-211.5 113.5t-130.5 172.5t-44.5 218.5q0 107 40 196t102.5 158t139 118t148.5 77
q-77 38 -136 88.5t-99 110t-60.5 126t-20.5 137.5q0 111 41 204.5t119 162t189.5 107t252.5 38.5q117 0 214.5 -35t167 -97.5t108.5 -149t39 -189.5zM816 1164q87 38 149.5 79t102.5 86t59 95.5t19 107.5q0 66 -21.5 124t-62.5 101t-101 68t-137 25q-80 0 -140 -26
t-100.5 -69.5t-61 -101t-20.5 -121.5q0 -45 8.5 -91.5t40.5 -94t94.5 -93.5t170.5 -89zM1221 479q0 94 -35.5 163t-98.5 123.5t-149.5 98.5t-188.5 87q-60 -28 -119 -67.5t-106.5 -93t-77 -122t-29.5 -152.5q0 -86 28.5 -158t82.5 -124.5t131.5 -81.5t176.5 -29
q87 0 158 29.5t121.5 79t78 114t27.5 133.5z" />
    <glyph glyph-name="nine.alt1" horiz-adv-x="1633" 
d="M1476 874q0 -192 -47 -373.5t-142 -340t-238 -286.5t-335 -212q-28 -12 -66 -26.5t-76.5 -28t-72 -23.5t-51.5 -13l-58 165q34 9 71.5 22.5t71.5 27t61.5 25.5t41.5 19q112 57 199.5 127.5t155 153.5t115.5 179.5t80 206.5q-87 -74 -200.5 -112.5t-230.5 -38.5
q-135 0 -245.5 49t-189 136.5t-121.5 208.5t-43 265q0 136 50 252t138 201t208 133.5t260 48.5q157 0 280 -55t208.5 -155.5t130.5 -242t45 -313.5zM800 518q99 0 201 41t201 118q2 28 4 60q2 26 3 59.5t1 65.5q0 58 -7 125.5t-24.5 134.5t-47 129t-73.5 109t-105 75.5
t-141 28.5q-91 0 -163.5 -32.5t-123.5 -92t-78 -142.5t-27 -184q0 -98 19.5 -187.5t64.5 -158t117.5 -109t178.5 -40.5z" />
    <glyph glyph-name="maiekthai.alt1" 
d="M-249 2372h-216v372l216 40v-412z" />
    <glyph glyph-name="maithothai.alt1" 
d="M-718 2929q15 -5 41.5 -19.5t52 -40.5t44 -64.5t18.5 -92.5q0 -15 -1.5 -40.5t-6 -51.5t-13.5 -50t-24 -36h69q64 0 122 6t111 21.5t103 42t99 66.5l147 -136q-63 -55 -129.5 -88t-140 -51.5t-155 -26t-173.5 -10.5q-56 0 -110.5 1.5t-110.5 11.5l-62 163q19 3 33 17
t23 34t13.5 44.5t4.5 49.5q0 20 -7 38.5t-19 34.5t-27.5 28t-32.5 18z" />
    <glyph glyph-name="maitrithai.alt1" 
d="M-540 2739q43 52 95 85t114 33q40 0 72.5 -14t55.5 -38t35.5 -55t12.5 -65q0 -17 -3 -39t-12 -44.5t-26 -43.5t-45 -36q40 6 71 13.5t58 23t52 41.5t52 69l115 -102q-38 -56 -84.5 -93.5t-106.5 -60.5t-135 -33t-170 -10l-41 139q15 3 34.5 14.5t37 28.5t29.5 38t14 42
q0 31 -12 48.5t-37 17.5q-37 0 -85 -34.5t-91 -96.5q-15 27 -36.5 50.5t-45 40.5t-47 26.5t-43.5 9.5q-37 0 -55.5 -20.5t-18.5 -45.5q0 -31 15.5 -55t38.5 -41t49.5 -26t48.5 -9l-29 -143q-60 0 -112.5 19.5t-91 55.5t-61 86.5t-22.5 112.5q0 48 18.5 88.5t50 70t73.5 46
t88 16.5q65 0 108.5 -32t71.5 -78z" />
    <glyph glyph-name="maichattawathai.alt1" 
d="M-703 2737h258v173l197 40v-213h266v-163h-266v-222h-197v222h-258v163z" />
    <glyph glyph-name="maiekupperleftthai.alt2" 
d="M-690 2352h-216v372l216 40v-412z" />
    <glyph glyph-name="maithoupperleftthai.alt2" 
d="M-1318 2881q15 -5 41.5 -19t52 -39.5t44 -64.5t18.5 -94q0 -15 -1.5 -33t-6 -36t-13.5 -34.5t-24 -28.5h69q61 0 118.5 6t111.5 21.5t105 42t100 66.5l147 -136q-63 -55 -129.5 -88t-140 -51.5t-155 -26t-173.5 -10.5q-56 0 -110.5 1.5t-110.5 11.5l-62 163q38 7 56 28
t18 71q0 20 -7 38.5t-19 34.5t-27.5 28t-32.5 18z" />
    <glyph glyph-name="maitriupperleftthai.alt2" 
d="M-1134 2739q43 52 95 85t114 33q40 0 72.5 -14t55.5 -38t35.5 -55t12.5 -65q0 -17 -3 -39t-12 -44.5t-26 -43.5t-45 -36q40 6 71 13.5t58 23t52 41.5t52 69l115 -102q-38 -56 -84.5 -93.5t-106.5 -60.5t-135 -33t-170 -10l-41 139q15 3 34.5 14.5t37 28.5t29.5 38t14 42
q0 31 -12 48.5t-37 17.5q-37 0 -85 -34.5t-91 -96.5q-15 27 -36.5 50.5t-45 40.5t-47 26.5t-43.5 9.5q-37 0 -55.5 -20.5t-18.5 -45.5q0 -31 15.5 -55t38.5 -41t49.5 -26t48.5 -9l-29 -143q-60 0 -112.5 19.5t-91 55.5t-61 86.5t-22.5 112.5q0 48 18.5 88.5t50 70t73.5 46
t88 16.5q65 0 108.5 -32t71.5 -78z" />
    <glyph glyph-name="maichattawaupperleftthai.alt2" 
d="M-1184 2740h258v172l230 41v-213h262v-163h-262v-222h-230v222h-258v163z" />
    <glyph glyph-name="maiekthai.alt3" 
d="M-249 2552h-216v372l216 40v-412z" />
    <glyph glyph-name="maithothai.alt3" 
d="M-588 3119q15 -5 41.5 -19.5t52 -40.5t44 -64.5t18.5 -92.5q0 -15 -1.5 -40.5t-6 -51.5t-13.5 -50t-24 -36h69q64 0 122 6t111 21.5t103 42t99 66.5l147 -136q-63 -55 -129.5 -88t-140 -51.5t-155 -26t-173.5 -10.5q-56 0 -110.5 1.5t-110.5 11.5l-62 163q19 3 33 17
t23 34t13.5 44.5t4.5 49.5q0 20 -7 38.5t-19 34.5t-27.5 28t-32.5 18z" />
    <glyph glyph-name="maitrithai.alt3" 
d="M-410 2939q43 52 95 85t114 33q40 0 72.5 -14t55.5 -38t35.5 -55t12.5 -65q0 -17 -3 -39t-12 -44.5t-26 -43.5t-45 -36q40 6 71 13.5t58 23t52 41.5t52 69l115 -102q-38 -56 -84.5 -93.5t-106.5 -60.5t-135 -33t-170 -10l-41 139q15 3 34.5 14.5t37 28.5t29.5 38t14 42
q0 31 -12 48.5t-37 17.5q-37 0 -85 -34.5t-91 -96.5q-15 27 -36.5 50.5t-45 40.5t-47 26.5t-43.5 9.5q-37 0 -55.5 -20.5t-18.5 -45.5q0 -31 15.5 -55t38.5 -41t49.5 -26t48.5 -9l-29 -143q-60 0 -112.5 19.5t-91 55.5t-61 86.5t-22.5 112.5q0 48 18.5 88.5t50 70t73.5 46
t88 16.5q65 0 108.5 -32t71.5 -78z" />
    <glyph glyph-name="maichattawathai.alt3" 
d="M-703 2937h258v173l197 40v-213h266v-163h-266v-222h-197v222h-258v163z" />
    <glyph glyph-name="maiekupperleftthai.alt4" 
d="M-800 2552h-216v372l216 40v-412z" />
    <glyph glyph-name="maithoupperleftthai.alt4" 
d="M-1038 3071q15 -5 41.5 -19t52 -39.5t44 -64.5t18.5 -94q0 -15 -1.5 -33t-6 -36t-13.5 -34.5t-24 -28.5h69q61 0 118.5 6t111.5 21.5t105 42t100 66.5l147 -136q-63 -55 -129.5 -88t-140 -51.5t-155 -26t-173.5 -10.5q-56 0 -110.5 1.5t-110.5 11.5l-62 163q38 7 56 28
t18 71q0 20 -7 38.5t-19 34.5t-27.5 28t-32.5 18z" />
    <glyph glyph-name="maitriupperleftthai.alt4" 
d="M-944 2929q43 52 95 85t114 33q40 0 72.5 -14t55.5 -38t35.5 -55t12.5 -65q0 -17 -3 -39t-12 -44.5t-26 -43.5t-45 -36q40 6 71 13.5t58 23t52 41.5t52 69l115 -102q-38 -56 -84.5 -93.5t-106.5 -60.5t-135 -33t-170 -10l-41 139q15 3 34.5 14.5t37 28.5t29.5 38t14 42
q0 31 -12 48.5t-37 17.5q-37 0 -85 -34.5t-91 -96.5q-15 27 -36.5 50.5t-45 40.5t-47 26.5t-43.5 9.5q-37 0 -55.5 -20.5t-18.5 -45.5q0 -31 15.5 -55t38.5 -41t49.5 -26t48.5 -9l-29 -143q-60 0 -112.5 19.5t-91 55.5t-61 86.5t-22.5 112.5q0 48 18.5 88.5t50 70t73.5 46
t88 16.5q65 0 108.5 -32t71.5 -78z" />
    <glyph glyph-name="maichattawaupperleftthai.alt4" 
d="M-1274 2940h258v172l230 41v-213h262v-163h-262v-222h-230v222h-258v163z" />
    <glyph glyph-name="saraithai.alt5" 
d="M-249 1897h-1675l86 189h1589v-189z" />
    <glyph glyph-name="saraiithai.alt5" 
d="M-248 1897h-1676l90 189h1361v200l225 41v-430z" />
    <glyph glyph-name="sarauethai.alt5" 
d="M-560 2143q0 -37 24 -61.5t62 -24.5q37 0 61.5 24.5t24.5 61.5t-24.5 61.5t-61.5 24.5q-38 0 -62 -24.5t-24 -61.5zM-700 2086q-6 12 -9 28t-3 41q0 48 19.5 89t52 71t75.5 47.5t91 17.5q49 0 92 -18.5t75.5 -51t51 -75.5t18.5 -92t-18.5 -93.5t-51 -78.5t-75.5 -54
t-92 -20h-1450l90 189h1134z" />
    <glyph glyph-name="saraueethai.alt5" 
d="M-646 2085h172v200l225 41v-430h-1675l86 189h967v200l225 41v-241z" />
    <glyph glyph-name="saraithai.alt6" 
d="M-692 1897h-1238l86 189h1152v-189z" />
    <glyph glyph-name="saraiithai.alt6" 
d="M-696 1893h-1238l86 189h926v200l226 41v-430z" />
    <glyph glyph-name="sarauethai.alt6" 
d="M-1016 2143q0 -37 26.5 -61.5t63.5 -24.5t61.5 24.5t24.5 61.5t-24.5 61.5t-61.5 24.5t-63.5 -24.5t-26.5 -61.5zM-1163 2143q-3 49 15 92t51 75.5t77.5 51t93.5 18.5t92.5 -18.5t75.5 -51t51 -75.5t19 -92t-19 -93.5t-51 -78.5t-75.5 -54t-92.5 -20h-1033l87 189h721
q-6 9 -9 26.5t-3 30.5z" />
    <glyph glyph-name="saraueethai.alt6" 
d="M-1054 2086h132v200l226 41v-430h-1295l86 189h622v200l229 41v-241z" />
    <glyph glyph-name="maiekthai.alt6" 
d="M-690 2552h-216v372l216 40v-412z" />
    <glyph glyph-name="maithothai.alt6" 
d="M-1018 3071q15 -5 41.5 -19t52 -39.5t44 -64.5t18.5 -94q0 -15 -1.5 -33t-6 -36t-13.5 -34.5t-24 -28.5h69q61 0 118.5 6t111.5 21.5t105 42t100 66.5l147 -136q-63 -55 -129.5 -88t-140 -51.5t-155 -26t-173.5 -10.5q-56 0 -110.5 1.5t-110.5 11.5l-62 163q38 7 56 28
t18 71q0 20 -7 38.5t-19 34.5t-27.5 28t-32.5 18z" />
    <glyph glyph-name="maitrithai.alt6" 
d="M-944 2939q43 52 95 85t114 33q40 0 72.5 -14t55.5 -38t35.5 -55t12.5 -65q0 -17 -3 -39t-12 -44.5t-26 -43.5t-45 -36q40 6 71 13.5t58 23t52 41.5t52 69l115 -102q-38 -56 -84.5 -93.5t-106.5 -60.5t-135 -33t-170 -10l-41 139q15 3 34.5 14.5t37 28.5t29.5 38t14 42
q0 31 -12 48.5t-37 17.5q-37 0 -85 -34.5t-91 -96.5q-15 27 -36.5 50.5t-45 40.5t-47 26.5t-43.5 9.5q-37 0 -55.5 -20.5t-18.5 -45.5q0 -31 15.5 -55t38.5 -41t49.5 -26t48.5 -9l-29 -143q-60 0 -112.5 19.5t-91 55.5t-61 86.5t-22.5 112.5q0 48 18.5 88.5t50 70t73.5 46
t88 16.5q65 0 108.5 -32t71.5 -78z" />
    <glyph glyph-name="maichattawathai.alt6" 
d="M-1184 2940h258v172l230 41v-213h262v-163h-262v-222h-230v222h-258v163z" />
    </font>
</defs>
</svg>
