<?xml version="1.0" standalone="no"?>
<!DOCTYPE svg PUBLIC "-//W3C//DTD SVG 1.1//EN" "http://www.w3.org/Graphics/SVG/1.1/DTD/svg11.dtd" >
<svg xmlns="http://www.w3.org/2000/svg" xmlns:xlink="http://www.w3.org/1999/xlink" version="1.1">
<metadata>
Created by FontForge 20201107 at Thu Nov 26 04:00:38 2009
 By 
Copyright (c) 2008 by Prinya R. nont. All rights reserved.
</metadata>
<defs>
<font id="DBMomentX-Bold" horiz-adv-x="0" >
  <font-face 
    font-family="DB Moment X Bold"
    font-weight="700"
    font-stretch="normal"
    units-per-em="4096"
    panose-1="2 0 8 6 6 0 0 2 0 2"
    ascent="3276"
    descent="-820"
    x-height="1495"
    cap-height="2032"
    bbox="-1992 -1444 3634 3248"
    underline-thickness="82"
    underline-position="-545"
    unicode-range="U+0020-F882"
  />
<missing-glyph horiz-adv-x="1323" 
d="M1348 1278v-45h20q21 0 21 29q0 4 -4.5 10t-16.5 6h-20zM1356 1229h-8v-45h-17v110h37q37 0 37 -32q0 -21 -8 -27t-25 -6l33 -45h-16zM1368 1167q41 0 55.5 22.5t14.5 43.5q0 37 -18.5 57.5t-51.5 20.5q-37 0 -55.5 -20.5t-18.5 -57.5q0 -25 16.5 -45.5t57.5 -20.5z
M1368 1319q41 0 59.5 -24.5t18.5 -61.5q0 -25 -18.5 -49.5t-59.5 -24.5t-61.5 24.5t-20.5 49.5q0 37 20.5 61.5t61.5 24.5zM643 1008q49 0 118.5 -10.5t137.5 -22.5t125 -30.5t86 -39.5q-61 127 -196.5 194.5t-274.5 67.5q-111 0 -209 -41t-160 -127q58 9 115 11t115 2h69
t74 -4zM1196 1262v-455q-152 49 -350.5 82t-415.5 33q-151 0 -299 -17q21 70 61.5 135.5t104 114.5t147.5 78t187 29q102 0 182 -22.5t139.5 -53.5t100.5 -70t57 -67q0 -5 0 20v59.5v73.5v60h86zM487 406q0 24 -16 38.5t-37 14.5q-20 0 -36.5 -14.5t-16.5 -38.5
q0 -25 16.5 -37.5t36.5 -12.5q21 0 37 12.5t16 37.5zM102 442q0 74 29 131.5t76 96.5t108.5 59.5t126.5 20.5q62 0 121.5 -18.5t106.5 -53.5t73.5 -90.5t26.5 -128.5v-373h340v647h86v-729h-602v82h94v381q0 94 -71.5 143t-174.5 49q-94 0 -169.5 -53t-75.5 -147v-344
l184 184q-16 8 -43 32.5t-27 74.5q0 57 37 89.5t94 32.5q54 0 86.5 -34.5t32.5 -87.5q0 -46 -16.5 -70.5t-28.5 -36.5q-8 -4 -55 -51t-105 -101q-69 -65 -151 -143h-103v438z" />
    <glyph glyph-name="plusminus" unicode="&#x2b;&#x2d;" horiz-adv-x="1398" 
d="M879 827v-417h-360v417h-449v328h449v401h360v-401h449v-328h-449zM78 0v332h1241v-332h-1241z" />
    <glyph glyph-name="ellipsis" unicode="&#x2e;&#x2e;&#x2e;" horiz-adv-x="2183" 
d="M360 467q54 0 101 -20t82 -54.5t55 -81t20 -98.5q0 -54 -20 -101t-55 -82t-82 -55t-101 -20t-100 20t-80.5 55t-54 82t-19.5 101q0 52 19.5 98.5t54 81t80.5 54.5t100 20zM1090 467q54 0 101 -20t82 -54.5t55 -81t20 -98.5q0 -54 -20 -101t-54.5 -82t-81 -55t-98.5 -20
q-54 0 -101 20t-82 55t-55 82t-20 101q0 52 20 98.5t54.5 81t80.5 54.5t99 20zM1819 467q54 0 101.5 -20t83 -54.5t56.5 -81t21 -98.5q0 -54 -21 -101t-56 -82t-82 -55t-99 -20q-54 0 -101 20t-82 55t-55 82t-20 101q0 52 20 98.5t54.5 81t80.5 54.5t99 20z" />
    <glyph glyph-name="lessequal" unicode="&#x3c;&#x3d;" horiz-adv-x="1356" 
d="M1248 292v-325l-1146 439v329zM1245 1684v-345l-651 -286l-45 -21q3 0 6 -2t6 -2l684 -246v-331l-1143 422v287z" />
    <glyph glyph-name="greaterequal" unicode="&#x3e;&#x3d;" horiz-adv-x="1356" 
d="M1248 735v-329l-1146 -439v325zM1248 1160v-287l-1143 -422v331l684 246q3 0 6 2t6 2l-45 21l-651 286v345z" />
    <glyph glyph-name="fongmanfunnuthai" unicode="&#xe4f;&#x22;" horiz-adv-x="1677" 
d="M102 799q0 117 30.5 226.5t86 204.5t133 173.5t171.5 134t202 86.5t225 31q118 0 227 -31t204 -86.5t173.5 -134t134.5 -173.5t86.5 -204.5t30.5 -226.5t-30.5 -225.5t-86.5 -203t-134.5 -172.5t-173.5 -134t-204 -86.5t-227 -30.5q-117 0 -225 30.5t-202 86.5
t-171.5 134t-133 172.5t-86 203t-30.5 225.5zM762 799q0 -37 14 -70t38.5 -57.5t57.5 -38.5t70 -14t70 14t57.5 38.5t38.5 57.5t14 70t-14 70t-38.5 57.5t-57.5 38.5t-70 14t-70 -14t-57.5 -38.5t-38.5 -57.5t-14 -70zM351 800q0 -123 46.5 -230.5t127 -188t188 -127
t230.5 -46.5t230.5 46.5t188 127t127 188t46.5 230.5t-46.5 230.5t-127 188t-188 127t-230.5 46.5t-230.5 -46.5t-188 -127t-127 -188t-46.5 -230.5zM532 800q0 85 32.5 160.5t88.5 131.5t131 88.5t161 32.5q85 0 160.5 -32.5t131.5 -88.5t88.5 -131.5t32.5 -160.5
q0 -86 -32.5 -161t-88.5 -131t-131.5 -88.5t-160.5 -32.5q-86 0 -161 32.5t-131 88.5t-88.5 131t-32.5 161zM1070 2545l386 84v-788h-386v704zM418 2545l387 84v-788h-387v704z" />
    <glyph glyph-name="dochadaphinthuthai" unicode="&#xe0e;&#xe3a;" horiz-adv-x="1804" 
d="M878 -369q-14 -11 -32 -27t-37 -37.5t-38 -47.5t-35 -55l-305 134q44 75 101 133.5t121 101.5t131.5 70t132.5 39l272 -142q3 21 3 48v1141q0 64 -7 120.5t-33.5 98.5t-78 66t-139.5 24q-72 0 -145.5 -18.5t-151.5 -49.5q18 -27 33 -58t26.5 -63.5t18 -66t6.5 -65.5v-603
q0 -98 -34 -172.5t-94 -124.5t-141.5 -75.5t-176.5 -25.5q-20 0 -43.5 1t-65.5 7l-89 279q86 0 134.5 13t72.5 35.5t29.5 54t5.5 67.5v449q0 49 -5.5 84t-15.5 61.5t-22.5 46.5t-26.5 40l2 -1l-156 188q95 73 202 134t217.5 105t219.5 68.5t208 24.5q229 0 386 -80t226 -238
q13 -33 21 -75t12 -85t5.5 -82.5t1.5 -67.5v-1099q0 -81 -22.5 -157t-73.5 -134.5t-133.5 -95t-203.5 -37.5zM1167 -817q0 45 17.5 84t46.5 68t66.5 45.5t78.5 16.5q48 0 88.5 -16.5t70 -45.5t46 -68t16.5 -84q0 -41 -16.5 -78t-46 -64.5t-70 -43.5t-88.5 -16
q-41 0 -78.5 16t-66.5 43.5t-46.5 64.5t-17.5 78z" />
    <glyph glyph-name="topatakphintuthai" unicode="&#xe0f;&#xe3a;" horiz-adv-x="1806" 
d="M1594 -136q0 -73 -17.5 -144.5t-65 -128t-132 -91.5t-218.5 -35l-183 141l-207 -163l-245 167q-32 -22 -75 -64t-92 -99l-235 193q41 53 95.5 99.5t110.5 83t109.5 62.5t93.5 38l235 -158q50 39 105 83t103 81l216 -144v14l-1 1200q0 64 -7 119.5t-33 96t-77 63.5
t-140 23q-74 0 -146 -14.5t-153 -45.5q18 -27 34 -58.5t27.5 -64.5t18.5 -66.5t7 -64.5v-610q0 -103 -37 -178t-101 -124t-151 -72.5t-187 -23.5h-79l-90 288q90 0 139 15t72 39t27.5 53.5t4.5 58.5v468q0 52 -5.5 87t-14.5 59.5t-21 42t-26 35.5q-11 12 -31 38
q-17 22 -47.5 59t-78.5 94q90 70 191.5 130.5t211.5 105.5t226 70.5t234 25.5q229 0 377.5 -77.5t213.5 -240.5v1q16 -39 25 -85t13.5 -93.5t5 -94.5t0.5 -87v-1107zM1167 -817q0 45 17.5 84t46.5 68t66.5 45.5t78.5 16.5q48 0 88.5 -16.5t70 -45.5t46 -68t16.5 -84
q0 -41 -16.5 -78t-46 -64.5t-70 -43.5t-88.5 -16q-41 0 -78.5 16t-66.5 43.5t-46.5 64.5t-17.5 78z" />
    <glyph glyph-name="dochadasarauthai" unicode="&#xe0e;&#xe38;" horiz-adv-x="1804" 
d="M878 -369q-14 -11 -32 -27t-37 -37.5t-38 -47.5t-35 -55l-305 134q44 75 101 133.5t121 101.5t131.5 70t132.5 39l272 -142q3 21 3 48v1141q0 64 -7 120.5t-33.5 98.5t-78 66t-139.5 24q-72 0 -145.5 -18.5t-151.5 -49.5q18 -27 33 -58t26.5 -63.5t18 -66t6.5 -65.5v-603
q0 -98 -34 -172.5t-94 -124.5t-141.5 -75.5t-176.5 -25.5q-20 0 -43.5 1t-65.5 7l-89 279q86 0 134.5 13t72.5 35.5t29.5 54t5.5 67.5v449q0 49 -5.5 84t-15.5 61.5t-22.5 46.5t-26.5 40l2 -1l-156 188q95 73 202 134t217.5 105t219.5 68.5t208 24.5q229 0 386 -80t226 -238
q13 -33 21 -75t12 -85t5.5 -82.5t1.5 -67.5v-1099q0 -81 -22.5 -157t-73.5 -134.5t-133.5 -95t-203.5 -37.5zM1221 -1216v160q0 60 -25.5 97.5t-55.5 57.5q-35 24 -80 34l243 267q81 -27 145 -76q27 -21 53.5 -49t47 -63.5t33 -79.5t12.5 -97v-251h-373z" />
    <glyph glyph-name="topataksarauthai" unicode="&#xe0f;&#xe38;" horiz-adv-x="1804" 
d="M1594 -136q0 -73 -17.5 -144.5t-65 -128t-132 -91.5t-218.5 -35l-183 141l-207 -163l-245 167q-32 -22 -75 -64t-92 -99l-235 193q41 53 95.5 99.5t110.5 83t109.5 62.5t93.5 38l235 -158q50 39 105 83t103 81l216 -144v14l-1 1200q0 64 -7 119.5t-33 96t-77 63.5
t-140 23q-74 0 -146 -14.5t-153 -45.5q18 -27 34 -58.5t27.5 -64.5t18.5 -66.5t7 -64.5v-610q0 -103 -37 -178t-101 -124t-151 -72.5t-187 -23.5h-79l-90 288q90 0 139 15t72 39t27.5 53.5t4.5 58.5v468q0 52 -5.5 87t-14.5 59.5t-21 42t-26 35.5q-11 12 -31 38
q-17 22 -47.5 59t-78.5 94q90 70 191.5 130.5t211.5 105.5t226 70.5t234 25.5q229 0 377.5 -77.5t213.5 -240.5v1q16 -39 25 -85t13.5 -93.5t5 -94.5t0.5 -87v-1107zM1221 -1216v160q0 60 -25.5 97.5t-55.5 57.5q-35 24 -80 34l243 267q81 -27 145 -76q27 -21 53.5 -49
t47 -63.5t33 -79.5t12.5 -97v-251h-373z" />
    <glyph glyph-name="dochadasarauuthai" unicode="&#xe0e;&#xe39;" horiz-adv-x="1804" 
d="M974 -901q0 -31 6 -63.5t20 -59.5t37.5 -44t58.5 -17q77 0 106.5 48t29.5 152v205l328 45v-258q0 -42 -7.5 -90t-28 -95t-55 -91t-88 -77t-129 -53t-176.5 -20q-114 0 -197.5 29.5t-138 78.5t-81.5 111t-28 127v23q0 28 -13 46t-29 29q-18 12 -41 19l188 246
q66 -16 119 -51q22 -15 43.5 -35.5t38 -47.5t27 -60.5t10.5 -75.5v-21zM878 -369q-14 -11 -32 -27t-37 -37.5t-38 -47.5t-35 -55l-305 134q44 75 101 133.5t121 101.5t131.5 70t132.5 39l272 -142q3 21 3 48v1141q0 64 -7 120.5t-33.5 98.5t-78 66t-139.5 24
q-72 0 -145.5 -18.5t-151.5 -49.5q18 -27 33 -58t26.5 -63.5t18 -66t6.5 -65.5v-603q0 -98 -34 -172.5t-94 -124.5t-141.5 -75.5t-176.5 -25.5q-20 0 -43.5 1t-65.5 7l-89 279q86 0 134.5 13t72.5 35.5t29.5 54t5.5 67.5v449q0 49 -5.5 84t-15.5 61.5t-22.5 46.5t-26.5 40
l2 -1l-156 188q95 73 202 134t217.5 105t219.5 68.5t208 24.5q229 0 386 -80t226 -238q13 -33 21 -75t12 -85t5.5 -82.5t1.5 -67.5v-1099q0 -81 -22.5 -157t-73.5 -134.5t-133.5 -95t-203.5 -37.5z" />
    <glyph glyph-name="topataksarauuthai" unicode="&#xe0f;&#xe39;" horiz-adv-x="1804" 
d="M1594 -136q0 -73 -17.5 -144.5t-65 -128t-132 -91.5t-218.5 -35l-183 141l-207 -163l-245 167q-32 -22 -75 -64t-92 -99l-235 193q41 53 95.5 99.5t110.5 83t109.5 62.5t93.5 38l235 -158q50 39 105 83t103 81l216 -144v14l-1 1200q0 64 -7 119.5t-33 96t-77 63.5
t-140 23q-74 0 -146 -14.5t-153 -45.5q18 -27 34 -58.5t27.5 -64.5t18.5 -66.5t7 -64.5v-610q0 -103 -37 -178t-101 -124t-151 -72.5t-187 -23.5h-79l-90 288q90 0 139 15t72 39t27.5 53.5t4.5 58.5v468q0 52 -5.5 87t-14.5 59.5t-21 42t-26 35.5q-11 12 -31 38
q-17 22 -47.5 59t-78.5 94q90 70 191.5 130.5t211.5 105.5t226 70.5t234 25.5q229 0 377.5 -77.5t213.5 -240.5v1q16 -39 25 -85t13.5 -93.5t5 -94.5t0.5 -87v-1107zM974 -901q0 -31 6 -63.5t20 -59.5t37.5 -44t58.5 -17q77 0 106.5 48t29.5 152v205l328 45v-258
q0 -42 -7.5 -90t-28 -95t-55 -91t-88 -77t-129 -53t-176.5 -20q-114 0 -197.5 29.5t-138 78.5t-81.5 111t-28 127v23q0 28 -13 46t-29 29q-18 12 -41 19l188 246q66 -16 119 -51q22 -15 43.5 -35.5t38 -47.5t27 -60.5t10.5 -75.5v-21z" />
    <glyph glyph-name=".notdef" horiz-adv-x="1323" 
d="M1348 1278v-45h20q21 0 21 29q0 4 -4.5 10t-16.5 6h-20zM1356 1229h-8v-45h-17v110h37q37 0 37 -32q0 -21 -8 -27t-25 -6l33 -45h-16zM1368 1167q41 0 55.5 22.5t14.5 43.5q0 37 -18.5 57.5t-51.5 20.5q-37 0 -55.5 -20.5t-18.5 -57.5q0 -25 16.5 -45.5t57.5 -20.5z
M1368 1319q41 0 59.5 -24.5t18.5 -61.5q0 -25 -18.5 -49.5t-59.5 -24.5t-61.5 24.5t-20.5 49.5q0 37 20.5 61.5t61.5 24.5zM643 1008q49 0 118.5 -10.5t137.5 -22.5t125 -30.5t86 -39.5q-61 127 -196.5 194.5t-274.5 67.5q-111 0 -209 -41t-160 -127q58 9 115 11t115 2h69
t74 -4zM1196 1262v-455q-152 49 -350.5 82t-415.5 33q-151 0 -299 -17q21 70 61.5 135.5t104 114.5t147.5 78t187 29q102 0 182 -22.5t139.5 -53.5t100.5 -70t57 -67q0 -5 0 20v59.5v73.5v60h86zM487 406q0 24 -16 38.5t-37 14.5q-20 0 -36.5 -14.5t-16.5 -38.5
q0 -25 16.5 -37.5t36.5 -12.5q21 0 37 12.5t16 37.5zM102 442q0 74 29 131.5t76 96.5t108.5 59.5t126.5 20.5q62 0 121.5 -18.5t106.5 -53.5t73.5 -90.5t26.5 -128.5v-373h340v647h86v-729h-602v82h94v381q0 94 -71.5 143t-174.5 49q-94 0 -169.5 -53t-75.5 -147v-344
l184 184q-16 8 -43 32.5t-27 74.5q0 57 37 89.5t94 32.5q54 0 86.5 -34.5t32.5 -87.5q0 -46 -16.5 -70.5t-28.5 -36.5q-8 -4 -55 -51t-105 -101q-69 -65 -151 -143h-103v438z" />
    <glyph glyph-name=".null" 
 />
    <glyph glyph-name="nonmarkingreturn" horiz-adv-x="905" 
 />
    <glyph glyph-name="space" unicode=" " horiz-adv-x="799" 
 />
    <glyph glyph-name="exclam" unicode="!" horiz-adv-x="1184" 
d="M440 647l-86 1360l467 66l-82 -1426h-299zM588 -37q-49 0 -92.5 19t-75.5 51.5t-51 76.5t-19 95t19.5 95t52.5 76.5t77 51t93 18.5t93 -18.5t77 -51t52.5 -76.5t19.5 -95t-19.5 -95t-53 -76.5t-78 -51.5t-95.5 -19z" />
    <glyph glyph-name="quotedbl" unicode="&#x22;" horiz-adv-x="1520" 
d="M1286 2068v-823h-368v823h368zM606 2068v-823h-368v823h368z" />
    <glyph glyph-name="numbersign" unicode="#" horiz-adv-x="1647" 
d="M86 586v262h283l49 369h-246v262h283l77 589h287l-82 -589h287l82 589h283l-82 -589h245v-262h-278l-49 -369h245v-262h-282l-82 -586h-283l82 586h-291l-82 -586h-282l82 586h-246zM700 1217l-49 -369h291l49 369h-291z" />
    <glyph glyph-name="dollar" unicode="$" horiz-adv-x="1774" 
d="M754 -37q-129 1 -230.5 19t-183 46t-149 63t-129.5 70l152 305q67 -35 133 -65.5t133 -53t135 -36t139 -16.5v574l-98 34q-113 39 -212.5 92t-174 123.5t-118 161t-44.5 205.5q-2 122 41 222.5t126.5 175.5t204 123.5t275.5 67.5v193l273 63v-254q85 -9 168 -28
t157 -45.5t137.5 -57.5t110.5 -64l-190 -285q-101 61 -201.5 94.5t-181.5 47.5v-475l91 -30q134 -44 240 -107t180 -143t113.5 -177.5t39.5 -211.5q0 -117 -40 -219t-121.5 -183t-205.5 -138t-293 -83l-4 -246h-273v238zM1229 553q0 30 -8 65t-30 69.5t-61.5 66.5t-102.5 55
v-491q37 7 73.5 26t65 49t46 70t17.5 90zM548 1535q0 -42 19.5 -72.5t49.5 -53.5t66.5 -38.5t70.5 -27.5v394q-45 -10 -82.5 -24.5t-65 -38t-43 -57.5t-15.5 -82z" />
    <glyph glyph-name="percent" unicode="%" horiz-adv-x="2445" 
d="M1888 2032l-1061 -2032h-278l1065 2032h274zM573 2060q232 0 373 -147q34 -34 58 -71.5t39.5 -81t22.5 -94t7 -110.5q0 -125 -32.5 -213.5t-102.5 -158.5q-34 -32 -71.5 -57.5t-82 -42.5t-96.5 -26t-115 -9q-114 0 -205.5 35.5t-156 101t-99 158.5t-34.5 208
q0 114 35.5 207.5t100 160t156 103.5t203.5 37zM1855 983q232 0 373 -147q67 -68 97 -154t30 -203q0 -126 -32.5 -215.5t-102.5 -157.5q-34 -32 -71.5 -57.5t-82 -42.5t-96.5 -26t-115 -9q-114 0 -205.5 35.5t-156 101.5t-99 159t-34.5 208q0 114 35.5 207.5t100 160
t156 103.5t203.5 37zM569 1843q-49 0 -89 -23t-58 -63q-16 -40 -20.5 -85.5t-4.5 -110.5q0 -78 7.5 -134.5t25.5 -87.5q19 -31 56.5 -52t86.5 -21q92 0 134.5 70.5t42.5 224.5q0 89 -13.5 147t-44.5 86q-21 25 -53.5 37t-69.5 12zM1851 766q-49 0 -88.5 -23.5t-58.5 -66.5
q-16 -37 -20.5 -82.5t-4.5 -110.5q0 -77 7.5 -133.5t25.5 -87.5q19 -31 56.5 -52.5t86.5 -21.5q92 0 134.5 71t42.5 224q0 90 -13.5 148t-44.5 86q-21 25 -53 37t-70 12z" />
    <glyph glyph-name="ampersand" unicode="&#x26;" horiz-adv-x="2089" 
d="M1757 991v-16q0 -167 -22 -299.5t-72 -241.5l211 -208l-283 -261l-157 158q-34 -28 -82 -58t-95 -49q-71 -27 -167 -42t-213 -15q-175 0 -311.5 37t-230.5 107.5t-143 173.5t-49 235q0 169 90 293.5t275 210.5q-56 43 -100.5 97.5t-75 113t-46.5 117t-16 110.5
q0 109 43 199.5t121 155.5t185.5 101t236.5 36q130 0 239.5 -34t188 -95t122.5 -146t44 -188q0 -87 -28 -154.5t-76 -122t-113 -99t-139 -83.5l-29 -16l340 -320q7 17 12.5 46t9 63t4 70t-0.5 66zM848 1204q46 23 84 53t65 65t41.5 74.5t14.5 82.5t-15.5 79t-42 62
t-61.5 40.5t-74 14.5q-41 0 -75.5 -14t-59.5 -39.5t-39 -60.5t-14 -78q0 -31 6.5 -57t23 -55t46 -63.5t75.5 -82.5q3 -3 11 -9t14 -12zM717 803q-78 -50 -117 -115.5t-39 -155.5q0 -68 26.5 -121t71.5 -89.5t104.5 -56t125.5 -19.5q207 0 307 98z" />
    <glyph glyph-name="quotesingle" unicode="'" horiz-adv-x="864" 
d="M614 2068v-823h-364v823h364z" />
    <glyph glyph-name="parenleft" unicode="(" horiz-adv-x="1142" 
d="M1024 2052q-31 -23 -53 -39.5t-39.5 -30.5t-33.5 -28.5t-34 -32.5q-74 -74 -130 -162t-87 -190q-15 -42 -26 -83t-19 -86.5t-14 -98.5t-10 -117q-4 -62 -4.5 -122t-0.5 -116q0 -99 6 -217.5t15 -232.5q9 -78 21 -144t28.5 -123.5t38.5 -109.5t51 -103q28 -49 57 -87.5
t63.5 -71.5t77 -62.5t97.5 -60.5l-102 -226q-214 72 -374 227.5t-253 375.5q-23 60 -41.5 124.5t-32.5 138t-24.5 157.5t-16.5 182q-6 65 -7 120.5t-1 108.5q0 74 4 149t11 146.5t17.5 137t24.5 120.5q15 64 41 129.5t60 128t75 120.5t87 109q89 96 195.5 171.5t230.5 127.5
z" />
    <glyph glyph-name="parenright" unicode=")" horiz-adv-x="1131" 
d="M114 -258q31 21 51.5 37t37 29.5t31.5 28t35 32.5q75 74 131 162t90 190q14 40 24.5 81t18 87t13 99t10.5 118q6 65 7 125.5t1 116.5q0 99 -4 215.5t-16 230.5q-9 78 -20.5 143.5t-27.5 122.5t-37 109t-50 105q-29 49 -58 87.5t-63.5 71.5t-76.5 62.5t-97 60.5l102 230
q106 -39 200.5 -97t174 -135t142.5 -172t106 -207q23 -58 41.5 -122t32.5 -137.5t24 -158t16 -184.5q3 -62 3.5 -114.5t0.5 -102.5q0 -75 -3 -151.5t-9.5 -149.5t-16.5 -140t-24 -124q-34 -130 -102 -255.5t-164 -228.5q-87 -95 -193 -170.5t-233 -128.5z" />
    <glyph glyph-name="asterisk" unicode="*" horiz-adv-x="1409" 
d="M1233 1790l86 -279l-381 -122l242 -332l-242 -176l-246 336l-237 -324l-238 180l246 316l-385 135l90 278l385 -139v405h295v-405z" />
    <glyph glyph-name="plus" unicode="+" horiz-adv-x="1847" 
d="M721 1069v614h369v-614h614v-369h-614v-614h-369v614h-615v369h615z" />
    <glyph glyph-name="comma" unicode="," horiz-adv-x="778" 
d="M98 -258q48 11 86.5 28t65.5 38.5t42 46.5t15 51q0 14 -3.5 25t-12.5 22t-24 22t-38 25q-58 34 -84 84t-26 121q0 52 19.5 97.5t53.5 79.5t80.5 53.5t100.5 19.5q63 0 116.5 -25.5t92 -72t60.5 -110.5t22 -141q0 -95 -30 -180.5t-84.5 -155t-131 -119.5t-168.5 -73z" />
    <glyph glyph-name="hyphen" unicode="-" horiz-adv-x="1258" 
d="M1110 1068v-366h-962v364z" />
    <glyph glyph-name="period" unicode="." horiz-adv-x="778" 
d="M389 467q54 0 101 -20t82 -54.5t55 -81t20 -98.5q0 -54 -20 -101t-54.5 -82t-81 -55t-98.5 -20q-54 0 -101 20t-82 55t-55 82t-20 101q0 52 20 98.5t54.5 81t81 54.5t98.5 20z" />
    <glyph glyph-name="slash" unicode="/" horiz-adv-x="1401" 
d="M1225 2232l-783 -2683h-254l783 2683h254z" />
    <glyph glyph-name="zero" unicode="0" horiz-adv-x="1678" 
d="M45 1024q0 144 26 277.5t75.5 249t119.5 210t158 162t191.5 104.5t220.5 37q139 0 252 -44.5t201.5 -122t153.5 -182t107.5 -224.5t63 -250t20.5 -258q0 -118 -21 -238.5t-63.5 -232.5t-107.5 -210.5t-152.5 -171.5t-199 -115t-246.5 -42q-134 0 -245 41t-200 113
t-155.5 171.5t-110.5 216t-66 246.5t-22 263zM1225 950q0 49 -1.5 108.5t-7.5 123.5t-17.5 129t-31 125.5t-48 113t-68.5 92t-93 62t-122 22.5q-80 0 -140 -29.5t-102 -79.5t-69 -116t-42.5 -138.5t-21.5 -147.5t-6 -142q0 -87 5.5 -177.5t20.5 -176t42.5 -161t72.5 -132
t108.5 -89.5t151.5 -33q72 0 127.5 27t96.5 74t69 109.5t44.5 134.5t24 149t7.5 152z" />
    <glyph glyph-name="one" unicode="1" horiz-adv-x="1678" 
d="M209 1651l569 381h285v-1712h440l-75 -320h-1180v320h430v1237q-49 -25 -103.5 -49.5t-105.5 -45.5t-94 -37t-69 -25z" />
    <glyph glyph-name="two" unicode="2" horiz-adv-x="1679" 
d="M1163 1476q0 63 -21.5 110.5t-61.5 79t-97 47.5t-127 16q-58 0 -119.5 -18t-130 -52t-144 -84.5t-161.5 -114.5l-155 263q69 64 155 125t184 108t206 76t221 31q141 1 259 -36.5t203 -111.5t132.5 -184t47.5 -253q0 -69 -8.5 -142.5t-38 -152.5t-85.5 -164.5t-152 -178.5
q-54 -52 -124.5 -112.5t-150.5 -126t-166.5 -135.5t-171.5 -140q24 0 51.5 0.5t55 0.5h51.5h41h720l-74 -328h-1365v283q21 19 51.5 44t65 52t70 54t65.5 51q90 72 169 135t152 129t143.5 139.5t144.5 165.5q57 71 90 130t49.5 110t21 96t4.5 88z" />
    <glyph glyph-name="three" unicode="3" horiz-adv-x="1679" 
d="M523 1241q84 5 157 10q31 2 62.5 4t60 4.5t51 4t35.5 3.5h-2q106 17 161.5 76.5t55.5 156.5q0 57 -22.5 102t-62.5 75.5t-93.5 46.5t-114.5 16q-45 0 -96.5 -8.5t-114.5 -31.5t-139.5 -64t-172.5 -106l-150 259q84 67 174 119.5t181.5 88.5t182 55t176.5 19
q138 0 255.5 -38t203 -108t134 -169.5t48.5 -223.5q0 -142 -60.5 -250t-172.5 -182q76 -38 130.5 -88t89.5 -110t51 -129t16 -145q0 -133 -37.5 -234.5t-104 -176t-157 -124t-196 -79t-222 -42t-234.5 -12.5q-89 0 -181 10.5t-189 32.5l-109 328q50 -15 103 -28.5t107 -24
t107.5 -16.5t104.5 -5q145 2 258 31t190.5 80t117.5 122t40 158q0 83 -39.5 141.5t-113.5 95t-181.5 53t-242.5 16.5q-12 0 -33 -0.5t-43.5 -1.5t-43.5 -2t-34 -2z" />
    <glyph glyph-name="four" unicode="4" horiz-adv-x="1679" 
d="M787 2029h413l-690 -1271h44h422v207l22 563l355 108v-720v-154h275l-85 -326h-190v-377l-381 -113v490h-905v269z" />
    <glyph glyph-name="five" unicode="5" horiz-adv-x="1679" 
d="M386 2028h1055l-50 -332h-668q-6 -48 -12 -88.5t-11.5 -79.5t-11.5 -80t-13 -90q33 2 70.5 3.5t75.5 1.5q90 0 176 -15t162.5 -47.5t141 -84t111 -125.5t72.5 -171t26 -220q0 -180 -62 -318t-179 -231t-286 -141t-383 -48q-83 0 -168.5 10.5t-166.5 33.5l-59 291
q108 -24 195 -35.5t158 -11.5q121 0 225.5 31t181 89.5t120 141.5t43.5 188q0 87 -27 153t-79 111t-126.5 67.5t-169.5 22.5q-50 0 -112 -7t-126.5 -19.5t-127 -31t-113.5 -40.5z" />
    <glyph glyph-name="six" unicode="6" horiz-adv-x="1679" 
d="M129 718q0 222 53 405t153.5 331.5t246 266t330.5 209.5q31 15 77 33t95 34.5t95 29t76 16.5l73 -218q-103 -30 -211 -86t-206 -135t-179.5 -179t-130.5 -216q30 18 66 30t74.5 19.5t77 10.5t73.5 3q154 0 276 -47.5t207 -131.5t129.5 -200t44.5 -254q0 -158 -54 -284.5
t-150 -216t-226.5 -137.5t-283.5 -48q-109 0 -203.5 28t-173 78.5t-140 121t-103.5 155.5t-64 181.5t-22 200.5zM847 964q-57 0 -116 -12t-107 -30.5t-78.5 -41t-30.5 -43.5q-2 -23 -2.5 -53.5t-0.5 -74.5q0 -45 6.5 -95t22 -99t40 -93.5t60 -78.5t84 -54t110.5 -20
q75 0 136 19.5t104.5 63t67.5 112t24 167.5q0 72 -18 133t-56.5 105.5t-99.5 69.5t-146 25z" />
    <glyph glyph-name="seven" unicode="7" horiz-adv-x="1679" 
d="M99 1697l90 335h1412l-80 -329l-129 -159q-89 -110 -176.5 -217t-166.5 -217.5t-147 -227t-117.5 -245.5t-77.5 -274t-28 -312l-415 -105q6 216 43.5 400t97.5 343t139.5 296.5t170 260.5t187.5 234t193 217h-84h-912z" />
    <glyph glyph-name="eight" unicode="8" horiz-adv-x="1679" 
d="M1467 1550q0 -90 -28 -159t-74.5 -123t-106 -96.5t-121.5 -79.5l43 -21q102 -50 174.5 -106t118.5 -117.5t67 -128t21 -137.5q0 -152 -56.5 -267t-156 -192.5t-236.5 -117t-298 -39.5q-168 0 -304.5 43t-233 121t-149 188t-52.5 244q0 95 33 172.5t85.5 140.5t118.5 112
t133 88q-124 83 -194 194.5t-70 239.5q0 112 39 213.5t120.5 178t208 121.5t301.5 45q153 0 269 -41t193 -111.5t116 -164.5t39 -200zM1172 545q0 39 -19.5 76.5t-52 71.5t-75 65t-88.5 57t-92 47t-86 36l-27 12q-6 2 -3 0.5t0 0.5q-48 -25 -95 -56t-83.5 -71.5t-59.5 -91.5
t-23 -114q0 -68 28 -124t77 -96.5t116 -63t145 -22.5q79 0 142 22t106.5 59t66.5 86.5t23 105.5zM558 1525q0 -33 9.5 -68.5t38.5 -72t84 -73.5t147 -74q123 60 188 131t65 161q0 53 -20.5 96.5t-56.5 74t-85 47.5t-106 17t-105.5 -18t-83.5 -49.5t-55 -75.5t-20 -96z" />
    <glyph glyph-name="nine" unicode="9" horiz-adv-x="1678" 
d="M1556 1314q0 -260 -72 -471t-213.5 -375.5t-352.5 -283.5t-488 -195l-84 234q149 52 268 113.5t212.5 135.5t164 163.5t122.5 197.5q-34 -12 -75 -25t-84 -23.5t-84.5 -17.5t-76.5 -7q-155 0 -276.5 47.5t-206.5 131.5t-129.5 200t-44.5 254q0 157 54 284t150 216.5
t226.5 137.5t283.5 48q109 0 203.5 -28t173 -78.5t140 -121t103.5 -155.5t64 -182t22 -200zM838 1068q57 0 116 12t107 30.5t78.5 41t30.5 43.5q2 23 2.5 53.5t0.5 74.5q0 45 -6.5 95t-22 99t-40 93.5t-60 78.5t-84 54t-110.5 20q-75 0 -136 -19.5t-104.5 -63t-67.5 -112
t-24 -167.5q0 -72 18 -133t56.5 -105.5t99 -69.5t146.5 -25z" />
    <glyph glyph-name="colon" unicode=":" horiz-adv-x="889" 
d="M442 1327q54 0 100.5 -19.5t80.5 -53.5t53.5 -80.5t19.5 -100.5q0 -52 -19.5 -97.5t-53.5 -79.5t-80.5 -53.5t-100.5 -19.5q-51 0 -95.5 19.5t-77.5 53.5t-52.5 79.5t-19.5 97.5t19.5 98.5t52.5 81t77.5 54.5t95.5 20zM442 459q54 -2 100.5 -23t80.5 -56t53.5 -82
t19.5 -101q0 -51 -20 -95t-54.5 -77t-81 -51.5t-98.5 -18.5t-98.5 18.5t-81 51.5t-54.5 77t-20 95q0 54 20 102t54.5 84t81 56.5t98.5 19.5z" />
    <glyph glyph-name="semicolon" unicode=";" horiz-adv-x="909" 
d="M434 1331q52 0 99 -20t82 -54.5t56 -81t21 -98.5q0 -51 -19.5 -96t-53 -79.5t-79.5 -54.5t-98 -20t-98.5 19.5t-81 53t-54.5 78t-20 95.5q0 54 19.5 101t53 82t78 55t95.5 20zM164 -258q46 11 84.5 28t66 38.5t43 46.5t15.5 51q0 28 -15 46.5t-55 43.5q-65 37 -94 84.5
t-29 116.5q0 55 19.5 102.5t54 82t82 54t102.5 19.5q63 0 116.5 -26.5t92 -73.5t60.5 -111.5t22 -141.5q0 -93 -30.5 -178.5t-85.5 -155.5t-131 -119.5t-167 -70.5z" />
    <glyph glyph-name="less" unicode="&#x3c;" horiz-adv-x="1364" 
d="M1245 1381v-345l-651 -286l-45 -21q3 0 6 -2t6 -2l684 -246v-331l-1143 422v287z" />
    <glyph glyph-name="equal" unicode="=" horiz-adv-x="1946" 
d="M1774 1348v-365h-1602v365h1602zM1774 791v-369h-1602v369h1602z" />
    <glyph glyph-name="greater" unicode="&#x3e;" horiz-adv-x="1364" 
d="M1245 857v-287l-1143 -422v331l684 246q3 0 6 2t6 2l-45 21l-651 286v345z" />
    <glyph glyph-name="question" unicode="?" horiz-adv-x="1812" 
d="M853 -37q-49 0 -91.5 19t-74 51.5t-49.5 76.5t-18 95t18.5 95t51.5 76.5t77 51t95 18.5q49 0 92 -18.5t75.5 -51t51 -76.5t18.5 -95t-19.5 -95t-52.5 -76.5t-78 -51.5t-96 -19zM653 604l-17 74q-22 94 -15 174t40.5 150.5t92 132.5t140.5 120q37 26 72 54t62 60t43 69
t16 82q0 54 -19.5 92t-52.5 62t-77 35t-93 11q-62 0 -111 -15.5t-88 -37t-67.5 -44.5t-48.5 -38l-176 250q27 29 77 68t121 74t163 59t204 24t213 -33.5t177.5 -96.5t121.5 -153t45 -204q0 -101 -25.5 -175.5t-65 -129.5t-87.5 -95.5t-92 -73.5q-63 -47 -108.5 -91
t-73.5 -90.5t-39 -97.5t-5 -113q1 -14 2 -14.5t2 2.5t2 4.5t3 -9.5z" />
    <glyph glyph-name="at" unicode="@" horiz-adv-x="2335" 
d="M1659 983q-5 -20 -9 -44.5t-8 -50t-6 -51t-2 -46.5q0 -15 3.5 -30t12.5 -26.5t24 -18.5t38 -7q46 0 91 25t80 78t57 135t22 196q0 177 -57 310t-158.5 222.5t-241 134.5t-305.5 45q-181 0 -330 -61t-255 -170.5t-164 -260.5t-58 -331q0 -192 64.5 -344.5t179 -259
t271.5 -163t341 -56.5q167 0 306 46.5t247 133.5h320q-77 -108 -176.5 -190.5t-215 -138.5t-244 -84.5t-261.5 -28.5q-155 0 -299 36.5t-269.5 104t-229 164t-177.5 217t-115 262.5t-41 301q0 156 40 297t112.5 262.5t174.5 219.5t225.5 167t265.5 106.5t296 37.5
q129 0 256 -28.5t242 -84t214 -137t171 -188.5t113 -238.5t41 -286.5t-36 -268.5t-94 -193t-130 -128.5t-144.5 -76.5t-138 -37t-109.5 -9.5q-61 0 -104 14t-70 36.5t-40.5 51.5t-14.5 58h-4q-29 -31 -66 -59.5t-83 -51t-102.5 -36t-125.5 -13.5q-94 0 -171 36t-132 101
t-85 155.5t-30 199.5q0 85 18 166.5t52.5 154.5t85 134t115 105.5t143 69.5t168.5 25q118 0 195 -37t120 -126h8l21 131h274zM1171 1331q-68 0 -121.5 -28t-91 -77t-57.5 -114.5t-20 -140.5q0 -46 8.5 -93t30.5 -84.5t61 -61t100 -23.5q92 0 152 32.5t94.5 84t48 114.5
t13.5 125q0 57 -13.5 105.5t-40.5 84.5t-68 56t-96 20z" />
    <glyph glyph-name="A" unicode="A" horiz-adv-x="1696" 
d="M1077 2032l629 -2032h-438l-142 499h-571l-149 -499h-426l655 2032h442zM1036 832q-19 59 -38 125q-17 57 -36 127t-36 145q-4 18 -9.5 43t-12 54.5t-13.5 61.5t-14 62q-16 71 -33 151q-17 -74 -34 -146q-7 -31 -15 -64.5t-15.5 -67.5t-15 -66.5t-14.5 -60.5
q-15 -54 -28 -98.5t-26 -86.5t-26.5 -85t-30.5 -94h397z" />
    <glyph glyph-name="B" unicode="B" horiz-adv-x="1786" 
d="M920 2032q136 0 258 -29t213.5 -90.5t145.5 -159t54 -233.5q0 -76 -22 -145.5t-63.5 -127t-102.5 -101.5t-139 -69q94 -27 168.5 -73t127 -110.5t80.5 -146.5t28 -182q0 -104 -33.5 -202t-100.5 -175t-167.5 -126.5t-233.5 -57.5q-47 0 -111 -2t-147 -2h-619v2032h664z
M657 1217h222q63 0 116 10.5t91.5 36.5t60 71.5t21.5 114.5q0 65 -23.5 109.5t-63.5 72t-93 39.5t-113 12h-218v-466zM665 332h247q65 0 121 18t96.5 53t63.5 88t23 123q0 71 -21.5 121.5t-62 83t-99.5 47.5t-134 15h-234v-549z" />
    <glyph glyph-name="C" unicode="C" horiz-adv-x="1602" 
d="M1342 1634q-78 59 -152.5 88.5t-161.5 29.5q-94 0 -163.5 -27t-119.5 -75t-82 -114t-50.5 -144t-26 -164t-7.5 -175q0 -105 5 -187.5t15.5 -148.5t26.5 -117t39 -92q61 -111 154 -172t225 -61q90 0 184 39.5t184 114.5l167 -262q-60 -49 -123.5 -87t-132.5 -64
t-145 -39.5t-162 -13.5q-209 0 -368.5 70.5t-285.5 212.5q-62 69 -108 154.5t-76.5 183t-46 203.5t-15.5 217q0 95 8.5 176.5t26 153.5t44 137.5t61.5 130.5q58 110 139 197.5t180 148t212.5 93t236.5 32.5q75 0 150 -13t143.5 -38t128.5 -60t106 -79z" />
    <glyph glyph-name="D" unicode="D" horiz-adv-x="1881" 
d="M662 2032q25 0 66 0.5t91.5 -0.5t106.5 -4t112 -9q189 -22 324 -105.5t221.5 -215t127 -302.5t40.5 -367q0 -113 -17 -229.5t-53.5 -226.5t-93 -207.5t-136 -173.5t-182.5 -124.5t-232 -59.5q-41 -4 -91 -6t-101 -3t-99 -1h-84l-406 2v2032h406zM669 332h242
q199 0 290 168.5t91 491.5q0 86 -3.5 173t-16.5 166.5t-39.5 148.5t-72.5 119.5t-115 79.5t-167 29h-209v-1376z" />
    <glyph glyph-name="E" unicode="E" horiz-adv-x="1613" 
d="M1478 2032l-121 -336h-692v-474h609v-332h-605v-538h809v-352h-1222v2032h1222z" />
    <glyph glyph-name="F" unicode="F" horiz-adv-x="1612" 
d="M1478 2032l-121 -336h-692v-474h609v-332h-605l1 -890h-414v2032h1222z" />
    <glyph glyph-name="G" unicode="G" horiz-adv-x="1880" 
d="M1472 1558q-99 83 -210.5 129t-229.5 46q-101 0 -173.5 -28t-123 -78t-81 -120t-47.5 -154t-22.5 -180t-5.5 -198q0 -215 37.5 -358t114.5 -220q59 -55 134.5 -84.5t174.5 -29.5q68 0 119 12t101 37v453h-404l126 331h704v-956q-83 -50 -164 -85t-163 -57.5t-166 -32.5
t-173 -10q-150 0 -275 36t-225 101.5t-174.5 158t-124.5 205.5t-75 244.5t-25 274.5q0 322 104.5 551.5t316.5 370.5q57 38 113 65t115 44.5t122.5 25.5t135.5 8q184 0 336.5 -53t287.5 -169z" />
    <glyph glyph-name="H" unicode="H" horiz-adv-x="1953" 
d="M661 2032v-802h622v802h414v-2032h-414v894h-622v-894h-405v2032h405z" />
    <glyph glyph-name="I" unicode="I" horiz-adv-x="946" 
d="M686 2032v-2032h-426v2032h426z" />
    <glyph glyph-name="J" unicode="J" horiz-adv-x="921" 
d="M661 2032v-1589q0 -98 -1.5 -168.5t-5 -122.5t-9 -88.5t-12.5 -67.5q-22 -92 -73 -168t-117.5 -135.5t-141.5 -102.5t-144 -69l-174 222q66 52 111.5 94.5t75 84t45.5 86t23.5 100.5t8.5 127.5t1 166.5v1630h413z" />
    <glyph glyph-name="K" unicode="K" horiz-adv-x="1824" 
d="M674 2032v-946l577 946h504l-651 -962l698 -1020l-478 -82l-650 1073v-1041h-418v2032h418z" />
    <glyph glyph-name="L" unicode="L" horiz-adv-x="1463" 
d="M674 2032v-1692h751l-97 -340h-1072v2032h418z" />
    <glyph glyph-name="M" unicode="M" horiz-adv-x="2485" 
d="M907 2032l236 -894q14 -54 29.5 -127.5t29 -148.5t24.5 -141.5t17 -106.5q4 27 10.5 67.5t14.5 88.5t17.5 100t19 101.5t19 92.5t18.5 74l249 894h520l180 -2032h-401l-74 966q-3 32 -5 75t-3.5 91.5t-2.5 99t-1.5 97t-1 86t-0.5 66.5q-9 -43 -24.5 -111.5t-32.5 -143
t-34 -144.5t-30 -116l-278 -966h-349l-258 971q-7 25 -16.5 64t-20 86t-22 98t-22 99.5t-19 90.5t-13.5 72q0 -44 -1.5 -112t-4.5 -141t-6 -142t-6 -115l-65 -971h-406l189 2032h524z" />
    <glyph glyph-name="N" unicode="N" horiz-adv-x="1953" 
d="M706 2032l471 -1014l161 -404l-31 666l1 752h389v-2032h-426l-412 880l-243 562l35 -664l-2 -778h-393v2032h450z" />
    <glyph glyph-name="O" unicode="O" horiz-adv-x="1950" 
d="M991 2056q203 0 363.5 -71.5t271.5 -205t170 -324.5t59 -431q0 -234 -53.5 -428.5t-160 -334t-266 -217t-371.5 -77.5q-116 0 -211.5 16.5t-175.5 51.5t-147.5 89.5t-125.5 129.5q-117 151 -170 340.5t-53 413.5q0 153 25.5 290t75 253.5t123 210t170 159t216 100.5
t260.5 35zM983 1741q-92 0 -158.5 -33.5t-112 -90t-72.5 -131t-41.5 -156t-19 -164.5t-4.5 -158q0 -76 3 -159t16 -164t39.5 -154.5t72.5 -129.5t115.5 -89t169.5 -33q106 0 180.5 42t122 131t69 227.5t21.5 332.5q0 157 -13 271t-41 200q-12 38 -37 83t-67 84t-102 65
t-141 26z" />
    <glyph glyph-name="P" unicode="P" horiz-adv-x="1689" 
d="M788 2032q189 0 345.5 -27.5t269 -98t175 -192t62.5 -309.5q0 -174 -56.5 -300t-156.5 -207t-238.5 -119.5t-301.5 -38.5h-222v-740h-409v2032h532zM665 1071h209q93 0 154.5 19.5t98 60t52 101.5t15.5 145q0 70 -19 126.5t-54 95.5t-86.5 60t-115.5 21h-254v-629z" />
    <glyph glyph-name="Q" unicode="Q" horiz-adv-x="1946" 
d="M1453 101q25 -2 52.5 -16.5t54.5 -34t52.5 -40.5t47.5 -37q35 -26 66.5 -41t58.5 -23t49 -10.5t38 -4.5q32 -4 58 -4t46 2q23 2 41 5l-108 -327q-19 -3 -45 -5q-22 -2 -52.5 -1.5t-68.5 5.5q-42 5 -82 18.5t-75.5 32.5t-67 41t-57.5 44q-25 21 -58.5 48t-72.5 55.5
t-81 56t-85 49.5t-85 36.5t-80 16.5q-114 0 -209 16.5t-175.5 51.5t-148.5 89.5t-126 129.5q-115 152 -170 340t-55 414q0 164 29.5 310.5t86.5 268.5t141 216.5t193 154.5q93 46 200.5 72t221.5 26q203 0 363.5 -71.5t271.5 -205t170 -324.5t59 -431q0 -164 -28.5 -309.5
t-81 -264.5t-125.5 -208t-163 -141zM983 1741q-52 0 -100 -12.5t-88.5 -36t-73 -57t-53.5 -74.5q-28 -49 -46 -107t-28.5 -126.5t-15 -148t-4.5 -171.5q0 -266 39.5 -428.5t131.5 -227.5q50 -37 109 -55t133 -18q106 0 180.5 42t122 131t69 227.5t21.5 332.5q0 157 -8 271
t-33 200q-12 38 -39 83t-71 84t-105 65t-141 26z" />
    <glyph glyph-name="R" unicode="R" horiz-adv-x="1788" 
d="M1020 2032q133 0 242.5 -43.5t187.5 -122t120.5 -189t42.5 -243.5q0 -114 -35 -215t-96.5 -177t-144.5 -121.5t-178 -48.5q31 -24 49 -40.5t37 -40.5q22 -28 54 -75t69.5 -104.5t77.5 -122t78 -127.5q90 -148 190 -317l-443 -81q-27 46 -63.5 111t-77.5 138t-83.5 148.5
t-81.5 144.5t-72 125t-54 89q-19 30 -37 52.5t-38.5 38t-46 25t-60.5 12.5v-848h-401v2032h764zM657 1155h135q94 0 167 9t122.5 37.5t75.5 82t26 141.5q0 92 -30 147t-81.5 84.5t-121.5 38.5t-149 9h-144v-549z" />
    <glyph glyph-name="S" unicode="S" horiz-adv-x="1704" 
d="M1354 1547q-69 42 -130.5 75t-118.5 56t-112 35t-112 12q-62 0 -113.5 -17t-89.5 -47.5t-59 -73.5t-21 -95q0 -40 11.5 -71.5t37.5 -56.5t69.5 -45t106.5 -37l246 -66q124 -34 220 -84.5t160.5 -120t98 -160t33.5 -204.5q0 -154 -60 -280t-169.5 -216t-263.5 -139
t-343 -49q-87 0 -177.5 17t-179 46t-173 67.5t-161.5 81.5l190 307q70 -37 131 -69.5t121.5 -57t124.5 -38.5t141 -14q176 0 266 71t90 207q0 49 -15.5 84.5t-47.5 61.5t-82.5 46.5t-120.5 41.5l-225 66q-47 14 -102.5 36t-110.5 53.5t-103.5 73.5t-82.5 96q-43 68 -64 140
t-21 158q0 140 53.5 256t149.5 199.5t229 129.5t293 46q94 0 186 -17.5t179 -48.5t166 -72t147 -89z" />
    <glyph glyph-name="T" unicode="T" horiz-adv-x="1580" 
d="M1556 2032l-101 -340h-473v-1692h-413v1692h-518v340h1505z" />
    <glyph glyph-name="U" unicode="U" horiz-adv-x="1965" 
d="M674 2032v-1336q0 -96 9.5 -153t27.5 -88q34 -72 98 -108t167 -36q97 0 166.5 33t107.5 93q15 25 23.5 52t12.5 56.5t4.5 62.5t0.5 70v1354h418v-1368q0 -72 -1 -118.5t-4.5 -80t-10 -60.5t-17.5 -61q-20 -60 -69 -127t-132.5 -123.5t-205 -93.5t-285.5 -37
q-368 0 -548 158.5t-180 492.5v1418h418z" />
    <glyph glyph-name="V" unicode="V" horiz-adv-x="1765" 
d="M431 2075l319 -1032q9 -34 23 -90t29 -121.5t30 -133.5t26 -125q11 48 26.5 112t32.5 130t34.5 127t31.5 103l328 987h430l-699 -2032h-368l-663 1993z" />
    <glyph glyph-name="W" unicode="W" horiz-adv-x="2528" 
d="M466 2067l161 -740q15 -72 29 -144.5t26.5 -143t23 -136.5t19.5 -124q20 -136 36 -262q2 19 6 58.5t10.5 93.5t15 118.5t19 135t23.5 143t28 142.5l180 824h447l176 -854q7 -36 15.5 -83.5t17 -101t17 -109.5t16.5 -109q18 -124 36 -258q1 15 8 67.5t18 126t24.5 161
t27 172t27 159.5t23.5 124l147 705h430l-492 -2032h-446l-160 713q-15 67 -29 140.5t-26.5 145t-23 138t-19 120.5t-14 91.5t-7.5 52.5q-16 -114 -34 -233q-8 -51 -17 -107.5t-19.5 -115.5t-21.5 -118.5t-22 -115.5l-148 -711h-467l-475 1989z" />
    <glyph glyph-name="X" unicode="X" horiz-adv-x="1692" 
d="M556 2068l292 -585l278 549h488l-529 -918l631 -1114h-495l-365 717l-364 -717h-508l639 1085l-521 898z" />
    <glyph glyph-name="Y" unicode="Y" horiz-adv-x="1614" 
d="M418 2079l287 -604q19 -42 34 -77t27 -66t22 -59.5t19 -55.5q15 43 43.5 111t62.5 142l263 562h483l-647 -1196v-836h-426v836l-610 1157z" />
    <glyph glyph-name="Z" unicode="Z" horiz-adv-x="1532" 
d="M1446 2032v-295l-754 -1274q-17 -26 -35.5 -52t-34.5 -46q-18 -24 -36 -46l72 6q31 2 66.5 4.5t66.5 2.5h679l-102 -332h-1270v287l750 1233q20 35 41.5 68t39.5 59q21 30 42 57q-24 -3 -56 -6q-27 -2 -65 -4t-84 -2h-627l90 340h1217z" />
    <glyph glyph-name="bracketleft" unicode="[" horiz-adv-x="827" 
d="M401 1876v-2069h272v-262h-624v2593h624v-262h-272z" />
    <glyph glyph-name="backslash" unicode="\" horiz-adv-x="1343" 
d="M62 2122l332 102l853 -2277l-332 -103z" />
    <glyph glyph-name="bracketright" unicode="]" horiz-adv-x="864" 
d="M426 -193v2069h-272v262h624v-2593h-624v262h272z" />
    <glyph glyph-name="asciicircum" unicode="^" horiz-adv-x="1946" 
d="M1188 2068l538 -1064h-418l-333 692l-338 -692h-409l534 1064h426z" />
    <glyph glyph-name="underscore" unicode="_" horiz-adv-x="1458" 
d="M0 -217h1458v-183h-1458v183z" />
    <glyph glyph-name="grave" unicode="`" horiz-adv-x="987" 
d="M735 1621l-667 271l198 355l599 -391z" />
    <glyph glyph-name="a" unicode="a" horiz-adv-x="1507" 
d="M139 1319q29 18 56 33.5t55.5 29.5t60.5 28.5t70 31.5q110 43 209 64.5t201 21.5q191 0 316.5 -67t166.5 -195q6 -18 11.5 -49t10 -69.5t7.5 -83.5t3 -92l-16 -476v-25q0 -69 6.5 -113.5t22 -77t42.5 -58.5t69 -58l-205 -242q-68 31 -120 81.5t-83 108.5
q-78 -83 -172.5 -126t-226.5 -43q-125 0 -221 31.5t-162 92t-100 148t-34 199.5q0 127 47 221.5t133 158.5t208.5 97.5t274.5 38.5q35 1 70.5 -1.5t73.5 -6.5v61q0 63 -7.5 105.5t-27 68t-53.5 36.5t-88 11q-93 0 -207 -44t-235 -125l-175 273zM909 649q-107 7 -180.5 -2
t-119 -35.5t-65.5 -72.5t-20 -113q0 -43 13 -79t36 -62.5t54.5 -41t68.5 -14.5q56 0 109 28t96 75z" />
    <glyph glyph-name="b" unicode="b" horiz-adv-x="1597" 
d="M603 1444q17 12 48.5 27t72 28.5t88 23t97.5 9.5q137 0 246 -53t185.5 -151t117.5 -238.5t41 -315.5q0 -229 -67.5 -403t-206.5 -285q-78 -62 -156.5 -88.5t-171.5 -26.5q-111 0 -198 39.5t-141 114.5q-9 -37 -15.5 -65.5t-25.5 -59.5h-345q11 25 17.5 48.5t10.5 57.5
t5 84.5t1 128.5v1770l385 74zM599 420q12 -23 34 -44t51 -37t64 -26t75 -10q60 0 100.5 18t66.5 50.5t39.5 76t19.5 95t7 108.5t1 115q0 42 -0.5 91t-6.5 98t-19.5 95t-39 81t-65.5 56t-99 21q-38 0 -71.5 -11t-62 -28t-52.5 -38t-42 -41v-670z" />
    <glyph glyph-name="c" unicode="c" horiz-adv-x="1286" 
d="M1045 1097q-29 28 -62 51.5t-66.5 40.5t-66 26.5t-59.5 9.5q-66 0 -114 -29t-79 -90.5t-46 -156t-15 -224.5q0 -95 10 -179t38 -147t77.5 -100t128.5 -37q68 0 151.5 34.5t172.5 115.5l144 -237l-37.5 -37.5t-32 -30.5t-31.5 -26t-36 -24q-80 -46 -168 -70t-196 -24
q-155 0 -276.5 52.5t-205 152t-127 243t-43.5 326.5q0 129 23.5 236t64.5 193.5t97.5 152t122.5 111.5q37 24 81 44.5t92 35t97.5 22.5t97.5 8q70 0 128 -12.5t109.5 -36.5t99 -59.5t98.5 -81.5z" />
    <glyph glyph-name="d" unicode="d" horiz-adv-x="1614" 
d="M1384 417q0 -84 5 -141.5t13.5 -99t19.5 -71.5t24 -58l-339 -94q-10 18 -18.5 40.5t-16 45.5t-13 44.5t-8.5 36.5q-68 -78 -148 -117.5t-182 -39.5q-143 0 -257.5 53.5t-195 152t-123.5 238.5t-43 314q0 175 46.5 320.5t130.5 249.5t201.5 162t260.5 58q40 0 74 -5.5
t64.5 -16t58.5 -26.5t56 -38l-4 668l394 70v-1746zM999 1102q-56 46 -106 70t-102 24q-66 0 -114 -27.5t-79 -86t-46 -149t-15 -216.5q0 -120 14 -201.5t46 -131.5t84.5 -71.5t129.5 -21.5q53 0 103 31t76 90v690h9z" />
    <glyph glyph-name="e" unicode="e" horiz-adv-x="1491" 
d="M1366 182q-71 -61 -137 -103.5t-132.5 -69t-137 -38.5t-148.5 -12q-161 0 -292 54.5t-223.5 155.5t-143 244t-50.5 320q0 102 11 186.5t34.5 157t59 134t84.5 116.5q92 101 205.5 151t261.5 50q64 0 126.5 -10.5t118.5 -31t104 -50.5t85 -68q101 -104 149 -267.5
t48 -396.5v-90h-865q0 -185 82.5 -274.5t233.5 -89.5q39 0 84 4t94 19.5t102 45.5t107 81zM983 887q0 62 -8 125t-31 114t-66 83t-112 32q-57 0 -100.5 -25t-73.5 -71t-45 -111.5t-15 -146.5h451z" />
    <glyph glyph-name="f" unicode="f" horiz-adv-x="1209" 
d="M1078 1793q-63 39 -119 61t-107 22q-77 0 -114 -43.5t-37 -124.5v-213h425l-98 -270h-327v-1225h-394v1225h-246v270h254l-2 205q0 111 30 197t89.5 145t147 90t202.5 31q121 0 222.5 -33t196.5 -91l-123 -246v0z" />
    <glyph glyph-name="g" unicode="g" horiz-adv-x="1658" 
d="M1695 1331q-51 -51 -125.5 -80t-155.5 -29q-31 0 -55.5 2t-39.5 5q43 -53 64.5 -111t21.5 -135q0 -95 -41.5 -176t-115.5 -140t-175 -92.5t-221 -33.5q-13 0 -24.5 0.5t-33.5 3.5q-87 -34 -127.5 -63t-40.5 -60q0 -8 13.5 -15t37.5 -13t56 -10t69 -6l156 -3
q104 -2 201 -28.5t171.5 -80.5t119.5 -137.5t45 -198.5q0 -96 -28.5 -169.5t-90.5 -141.5q-49 -52 -114.5 -88.5t-142 -59.5t-161 -33.5t-172.5 -10.5q-80 0 -158 7t-149 25t-133.5 48t-111.5 76q-66 63 -104.5 147t-49.5 179l352 75q0 -34 7 -61t17 -47t20.5 -34.5
t17.5 -23.5q34 -45 100 -68.5t163 -23.5q34 0 73.5 2t79.5 9t77.5 20t66 35.5t46 55t17.5 78.5q0 51 -24 83.5t-64.5 52.5t-94 29.5t-111.5 14.5l-248 19q-27 2 -66.5 4t-83.5 9t-87 21.5t-77 40t-55 65t-19 97.5q1 35 14.5 69.5t45 66t83 58t128.5 46.5
q-164 40 -241.5 143.5t-77.5 270.5q0 115 44.5 208t126.5 159t199 101.5t261 35.5q62 0 124 -8t142 -29q62 -16 104.5 -24.5t79.5 -8.5q42 0 91.5 7.5t96.5 23t87 38.5t63 53zM766 1237q-112 0 -173 -58.5t-61 -166.5q0 -57 17 -97.5t47 -66t72.5 -37.5t93.5 -12
q117 0 179 55.5t62 157.5q0 108 -63 166.5t-174 58.5z" />
    <glyph glyph-name="h" unicode="h" horiz-adv-x="1640" 
d="M589 2165v-798q38 35 88 66t106.5 54t116 36t116.5 13q70 0 133.5 -15t114.5 -42.5t87.5 -67t53.5 -88.5q11 -32 18 -59.5t11.5 -58.5t6 -69t1.5 -92v-1044h-392v1004q0 57 -6.5 96t-22.5 63t-43 34.5t-69 10.5q-37 0 -78 -11.5t-83 -31t-81.5 -46t-73.5 -55.5v-1064
h-392v2090z" />
    <glyph glyph-name="i" unicode="i" horiz-adv-x="843" 
d="M620 1532v-1532h-393v1461zM417 2170q49 0 92 -19t75.5 -52t51 -77t18.5 -93q0 -51 -19.5 -95.5t-52.5 -78t-77 -53t-93 -19.5t-93 19.5t-77 53t-52 78t-19 95.5q0 49 19.5 93t52.5 77t78 52t96 19z" />
    <glyph glyph-name="j" unicode="j" horiz-adv-x="843" 
d="M619 1529v-1488q0 -120 -21.5 -211.5t-57 -161t-81 -120t-92 -87.5t-91 -64.5t-78.5 -50.5l-164 228q58 47 95.5 95.5t59 103t29.5 117t8 139.5v1428zM428 2170q49 0 92 -19t75.5 -52t51 -77t18.5 -93q0 -51 -19.5 -95.5t-52.5 -78t-77 -53t-93 -19.5t-93 19.5t-77 53
t-52 78t-19 95.5q0 49 19.5 93t52.5 77t78 52t96 19z" />
    <glyph glyph-name="k" unicode="k" horiz-adv-x="1534" 
d="M1458 1495l-475 -627l555 -823l-416 -72l-516 875l385 647h467zM601 2171v-2171h-392v2098z" />
    <glyph glyph-name="l" unicode="l" horiz-adv-x="848" 
d="M620 328q0 -41 3.5 -72.5t11 -61.5t18.5 -61.5t26 -71.5l-381 -87q-20 42 -33.5 83.5t-21.5 86.5t-12 97t-4 115v1734l391 73z" />
    <glyph glyph-name="m" unicode="m" horiz-adv-x="2331" 
d="M541 1520q21 -31 32.5 -75.5t20.5 -103.5q38 38 79 71t85 57t91 37.5t98 13.5q62 0 118 -11.5t103 -36.5t83.5 -65t59.5 -97q51 52 100 91.5t100 65.5t105.5 39.5t116.5 13.5q109 0 186 -25.5t126 -80.5t71.5 -141.5t22.5 -207.5v-1065h-394v987q0 66 -2 107.5t-12.5 65
t-32 32t-59.5 8.5q-28 0 -64 -10.5t-72.5 -29t-70 -43.5t-55.5 -54v-1063h-384v971q0 70 -4 115.5t-16.5 71.5t-36 36t-63.5 10q-28 0 -61.5 -12.5t-67 -32.5t-64.5 -45t-53 -51v-1063h-393v1044q0 80 -3 139t-10 104t-18 78t-26 60z" />
    <glyph glyph-name="n" unicode="n" horiz-adv-x="1591" 
d="M519 1532q12 -23 22 -50t16.5 -54.5t10.5 -54t4 -49.5q32 32 77.5 69t94.5 65q59 31 130 46.5t136 15.5q107 0 181 -32.5t120.5 -90t67 -135.5t20.5 -168v-1094h-391v971q0 64 -6 107t-21 68t-40 35.5t-64 10.5q-29 0 -60.5 -11.5t-65 -31.5t-68.5 -46.5t-70 -57.5v-1045
h-393v1085q0 96 -13 185t-40 164z" />
    <glyph glyph-name="o" unicode="o" horiz-adv-x="1540" 
d="M766 1524q165 0 292 -59.5t213.5 -163t130.5 -244.5t44 -303q0 -165 -41 -309t-125 -250t-212 -167t-302 -61q-152 0 -276 54.5t-212 155.5t-136 244t-48 320t48 321t136 247t212 159t276 56zM770 1237q-58 0 -98.5 -24t-68 -63t-43.5 -90t-24 -105t-10.5 -107.5
t-2.5 -97.5q0 -46 1 -101t8.5 -110.5t23 -107.5t43.5 -92t71.5 -64.5t107.5 -24.5q63 0 109.5 29t77 91t45.5 158t15 230q0 97 -9.5 184t-37 152.5t-77.5 104t-131 38.5z" />
    <glyph glyph-name="p" unicode="p" horiz-adv-x="1589" 
d="M549 1524q10 -41 16 -73t9 -67q53 62 145 101t207 39q145 0 252.5 -61.5t179 -164t106.5 -234.5t35 -273q0 -114 -16 -219t-48.5 -196.5t-82.5 -167t-118 -129t-154 -83t-191 -29.5q-86 0 -154 15t-132 52v-579l-394 -98v1728q0 74 -1 125t-3.5 91.5t-7.5 77.5t-13 83z
M603 365q40 -35 90.5 -60.5t109.5 -25.5q72 0 123 26t84 82t48 145.5t15 217.5q0 108 -9.5 192t-31.5 139q-42 123 -184 123q-74 0 -133.5 -29t-111.5 -81v-729z" />
    <glyph glyph-name="q" unicode="q" horiz-adv-x="1606" 
d="M1421 1499q-9 -43 -16.5 -85.5t-13 -90t-8.5 -102.5t-3 -124v-1646l-393 -98v745q-20 -26 -48 -50t-62.5 -43t-74.5 -30.5t-85 -11.5q-155 0 -272 61t-196 165t-119 242.5t-40 293.5q0 92 15 187.5t46.5 185t81 169t118 138.5t157.5 93t201 34q58 0 112.5 -12t99 -33
t76 -48.5t43.5 -58.5q1 20 2.5 35t3.5 28l4 26t5 30h366zM987 1085q-42 64 -91 91.5t-114 27.5q-58 0 -99.5 -18.5t-71 -50.5t-47.5 -74.5t-27.5 -90.5t-13 -98.5t-3.5 -97.5q0 -119 13 -210t43.5 -152.5t80.5 -93t125 -31.5q32 0 62 10t56 26t48 36.5t39 41.5v684z" />
    <glyph glyph-name="r" unicode="r" horiz-adv-x="1127" 
d="M496 1532q27 -47 42.5 -99t18.5 -114q29 41 69.5 77.5t89.5 65t104 47t114 23.5q39 3 64 4t45.5 -0.5t39 -4.5t44.5 -8l-102 -332q-45 10 -90.5 9.5t-80.5 -5.5q-70 -9 -137 -41t-123 -97v-1057h-393v999q0 152 -16 263t-38 176z" />
    <glyph glyph-name="s" unicode="s" horiz-adv-x="1380" 
d="M1097 1153q-56 27 -104.5 44.5t-93.5 27t-86.5 13t-83.5 3.5q-43 0 -78.5 -10.5t-60.5 -29.5t-39 -46t-14 -61q0 -28 10 -50t32 -40t58 -33t88 -29l185 -49q82 -22 151.5 -56.5t119 -85.5t77.5 -119.5t28 -156.5q0 -117 -46.5 -212.5t-130.5 -164t-201.5 -106
t-260.5 -37.5q-139 0 -292 36.5t-317 123.5l145 276q45 -28 104 -54.5t124.5 -47.5t133.5 -34t131 -13q43 0 80 13t64 36t42 54.5t15 68.5t-14.5 64t-43 48t-71.5 37.5t-101 30.5l-162 40q-77 19 -145 53.5t-119 87.5t-80.5 125.5t-29.5 167.5q0 100 41 186t117 148.5
t182 98t237 35.5q91 0 164.5 -10t136 -27.5t116.5 -40t107 -46.5z" />
    <glyph glyph-name="t" unicode="t" horiz-adv-x="1170" 
d="M997 1225h-334v-750q0 -71 7 -116.5t25.5 -72.5t50.5 -37.5t81 -10.5q28 0 69 8.5t94 23.5l74 -228q-43 -18 -91 -33t-95.5 -25t-93 -15.5t-84.5 -5.5q-124 0 -207 32.5t-132.5 91.5t-70 142t-20.5 185v811h-239v270h239v383l393 72v-455h437z" />
    <glyph glyph-name="u" unicode="u" horiz-adv-x="1552" 
d="M566 1532v-975q0 -27 0.5 -60t4.5 -66t13.5 -64.5t27.5 -55.5t46.5 -38.5t70.5 -14.5q35 0 70 10.5t65 31t53 50t34 68.5v1046l392 68v-1143q0 -74 23.5 -146t67.5 -124l-293 -160q-37 28 -65 74t-47 92q-71 -75 -167.5 -118.5t-214.5 -43.5q-103 0 -178.5 19.5t-128 55
t-85.5 85t-51.5 109.5t-25 129t-6.5 143v957z" />
    <glyph glyph-name="v" unicode="v" horiz-adv-x="1368" 
d="M375 1520l188 -611q7 -25 17.5 -61.5t21.5 -79.5t22.5 -88.5t22 -88.5t19 -79.5t13.5 -61.5q4 32 14.5 86.5t24.5 118t31 130.5t34 124l178 586h409l-539 -1495h-323l-536 1447z" />
    <glyph glyph-name="w" unicode="w" horiz-adv-x="2081" 
d="M424 1511l105 -531q7 -32 14.5 -71t15.5 -80.5t16 -84t15 -81.5q17 -92 33 -188q11 78 27 163q14 73 33.5 165t45.5 188l143 504h361l127 -491q24 -106 44.5 -201t34.5 -168q17 -85 31 -160q3 23 11 77.5t19 125t25 150t29 151.5l98 516h405l-415 -1495h-360
q-40 152 -69.5 264.5t-51 194.5t-35.5 138t-23.5 95t-15 65t-9.5 49q-14 70 -25.5 137t-12.5 127q-6 -46 -14 -113t-26 -151q-1 -3 -9 -39t-23.5 -100.5t-38 -155.5t-52.5 -204l-78 -307h-365l-394 1444z" />
    <glyph glyph-name="x" unicode="x" horiz-adv-x="1462" 
d="M491 1518q51 -84 84.5 -142.5t59.5 -108t50.5 -98t57.5 -113.5q7 17 14 33.5t15 35.5t18.5 42.5t24.5 53.5q6 13 19.5 36.5t30.5 52.5t35.5 59.5t34.5 57t28 44.5t15 22h408l-462 -680l528 -809l-450 -4l-160 272q-7 11 -18.5 30.5t-25.5 42.5t-29 47.5t-27.5 46
t-21.5 37t-11 20.5q-5 -12 -13 -29.5t-21 -43.5t-32.5 -61.5t-47.5 -83.5l-161 -278h-455l549 800l-450 644z" />
    <glyph glyph-name="y" unicode="y" horiz-adv-x="1450" 
d="M388 1518l255 -871q5 -18 11 -40.5t12.5 -47.5t13 -51t12.5 -51q14 -58 29 -121q0 19 5.5 49t14 65.5t19 75t21 77t20.5 72t18 60.5l223 760h409l-529 -1520q-42 -116 -79.5 -201t-77 -147.5t-85.5 -105.5t-104.5 -74.5t-133 -55t-172.5 -46.5l-108 259q50 11 93 24
t82 34t75 54.5t72 86.5q13 23 24.5 44.5t21.5 44.5t20.5 49.5t22.5 58.5h-98q-17 52 -38.5 117.5t-42 127t-36.5 110.5t-22 67l-344 1028z" />
    <glyph glyph-name="z" unicode="z" horiz-adv-x="1331" 
d="M1264 1495v-270l-686 -955h712l-95 -270h-1125v242l731 979h-723l140 274h1046z" />
    <glyph glyph-name="braceleft" unicode="{" horiz-adv-x="1139" 
d="M770 -455q-78 0 -147 24t-120 75.5t-80.5 132t-29.5 194.5v504q0 45 -19.5 77.5t-49.5 54.5t-67.5 36t-73.5 21t-67 9.5t-48 2.5v332q17 0 48 2.5t67 9.5t73.5 20.5t67.5 35.5t49.5 54.5t19.5 77.5v508q0 114 28.5 194t78.5 130.5t119.5 74t150.5 23.5h314v-332h-154
q-66 0 -104 -18.5t-56.5 -46.5t-23.5 -61t-5 -62v-471q0 -68 -13 -115.5t-35 -80.5t-51 -52.5t-61.5 -30.5t-66 -16t-63.5 -8v-4q30 -3 63.5 -8t66 -15.5t61.5 -30t51 -52t35 -81t13 -116.5v-471q0 -31 5 -64.5t23.5 -61t56.5 -45.5t104 -18h154v-332h-314z" />
    <glyph glyph-name="bar" unicode="|" horiz-adv-x="647" 
d="M508 2208v-2261h-369v2261h369z" />
    <glyph glyph-name="braceright" unicode="}" horiz-adv-x="1143" 
d="M401 2138q74 0 141 -24t117.5 -75.5t80.5 -132t30 -194.5v-504q0 -45 18.5 -77.5t48 -54.5t66 -35.5t72.5 -20.5t68 -9.5t52 -2.5v-332q-20 0 -52 -2.5t-68 -9.5t-72.5 -21t-66 -36t-48 -54.5t-18.5 -77.5v-508q0 -114 -29 -194t-79.5 -130.5t-119.5 -74t-149 -23.5h-317
v332h153q66 0 104 18t57 45.5t23.5 61t4.5 64.5v466q0 69 13 117.5t35 81.5t51.5 53t61.5 31.5t65.5 16.5t64.5 8v4q-31 2 -64.5 6t-65.5 14.5t-61.5 30t-51.5 52t-35 80.5t-13 116v475q0 29 -4.5 62t-23.5 61t-57 46.5t-104 18.5h-153v332h325z" />
    <glyph glyph-name="asciitilde" unicode="~" horiz-adv-x="1946" 
d="M1677 875q-36 -55 -74.5 -104.5t-85 -87t-104 -59.5t-131.5 -22q-37 0 -76.5 8t-80.5 21t-83 30t-84 35q-41 17 -82 35t-79.5 33t-73.5 25t-64 10q-43 0 -78 -15t-65 -40t-57 -56.5t-53 -65.5l-150 251q23 46 62 97.5t91 95t116.5 72.5t138.5 29t157 -27t166 -67
q40 -17 80.5 -35t78.5 -33t73.5 -24.5t66.5 -9.5q43 0 75 12t58.5 33.5t51 50.5t53.5 62l153 -254v0z" />
    <glyph glyph-name="saraileftthai" 
d="M-835 1885h-1007l162 279h845v-279z" />
    <glyph glyph-name="saraileftthai" unicode="&#xf701;" 
d="M-835 1885h-1007l162 279h845v-279z" />
    <glyph glyph-name="saraiileftthai" 
d="M-835 1886l-1006 -1l158 279h502l-1 206l347 68v-552z" />
    <glyph glyph-name="saraiileftthai" unicode="&#xf702;" 
d="M-835 1886l-1006 -1l158 279h502l-1 206l347 68v-552z" />
    <glyph glyph-name="saraueleftthai" 
d="M-1372 2163q0 71 22.5 127t61.5 95t91 60t110 21q60 0 113 -22t92 -60.5t62 -90.5t23 -112q0 -59 -23 -112.5t-62 -94t-92 -65t-113 -24.5h-16h-736l157 278h310zM-1179 2181q0 -41 27.5 -67t64.5 -26q41 0 67 26t26 67q0 37 -26 65t-67 28q-18 0 -35 -7.5t-29.5 -20.5
t-20 -30t-7.5 -35z" />
    <glyph glyph-name="saraueleftthai" unicode="&#xf703;" 
d="M-1372 2163q0 71 22.5 127t61.5 95t91 60t110 21q60 0 113 -22t92 -60.5t62 -90.5t23 -112q0 -59 -23 -112.5t-62 -94t-92 -65t-113 -24.5h-16h-736l157 278h310zM-1179 2181q0 -41 27.5 -67t64.5 -26q41 0 67 26t26 67q0 37 -26 65t-67 28q-18 0 -35 -7.5t-29.5 -20.5
t-20 -30t-7.5 -35z" />
    <glyph glyph-name="saraueeleftthai" 
d="M-1243 2168h147v226l260 48v-553h-1044l164 279h215v226l258 48v-274z" />
    <glyph glyph-name="saraueeleftthai" unicode="&#xf704;" 
d="M-1243 2168h147v226l260 48v-553h-1044l164 279h215v226l258 48v-274z" />
    <glyph glyph-name="maieklowleftthai" 
d="M-829 1889h-345v522l345 63v-585z" />
    <glyph glyph-name="maieklowleftthai" unicode="&#xf705;" 
d="M-829 1889h-345v522l345 63v-585z" />
    <glyph glyph-name="maitholowleftthai" 
d="M-1413 2477q21 -5 58.5 -21t73.5 -44t62.5 -68t26.5 -92q0 -19 -3.5 -40t-12.5 -42q-5 -11 -9.5 -17.5t-7.5 -10.5l-7 -7q111 0 201 43.5t168 121.5l163 -224q-74 -53 -134.5 -87.5t-121.5 -55t-130 -30t-159 -12.5q-56 0 -113.5 2t-128.5 15l-83 217q12 3 28 7.5t30 13
t23.5 22t9.5 35.5q0 23 -12.5 40t-30 29t-36.5 19t-31 10z" />
    <glyph glyph-name="maitholowleftthai" unicode="&#xf706;" 
d="M-1413 2477q21 -5 58.5 -21t73.5 -44t62.5 -68t26.5 -92q0 -19 -3.5 -40t-12.5 -42q-5 -11 -9.5 -17.5t-7.5 -10.5l-7 -7q111 0 201 43.5t168 121.5l163 -224q-74 -53 -134.5 -87.5t-121.5 -55t-130 -30t-159 -12.5q-56 0 -113.5 2t-128.5 15l-83 217q12 3 28 7.5t30 13
t23.5 22t9.5 35.5q0 23 -12.5 40t-30 29t-36.5 19t-31 10z" />
    <glyph glyph-name="maitrilowleftthai" 
d="M-1323 2338q24 29 50.5 46t52.5 26t50 12t45 4q52 3 92.5 -11t68 -38.5t42 -58t14.5 -70.5q0 -31 -5 -60.5t-26 -56.5q16 6 27 10.5t23.5 12.5t30.5 22t50 40l127 -163q-62 -75 -188.5 -119t-302.5 -47l-38 191q27 6 42.5 28t13.5 44q-3 31 -17 41.5t-39 10.5
q-14 0 -30.5 -7t-33 -18.5t-32 -25.5t-27.5 -27q-12 27 -44 48t-69 21q-28 0 -46.5 -11t-18.5 -38q0 -31 31.5 -50t75.5 -28l-55 -179q-63 1 -121 19.5t-102 52t-70.5 82.5t-26.5 112q0 57 19 107t55 86.5t86.5 57.5t113.5 19q39 -1 68 -9t51 -20t37 -26.5t26 -29.5z" />
    <glyph glyph-name="maitrilowleftthai" unicode="&#xf707;" 
d="M-1323 2338q24 29 50.5 46t52.5 26t50 12t45 4q52 3 92.5 -11t68 -38.5t42 -58t14.5 -70.5q0 -31 -5 -60.5t-26 -56.5q16 6 27 10.5t23.5 12.5t30.5 22t50 40l127 -163q-62 -75 -188.5 -119t-302.5 -47l-38 191q27 6 42.5 28t13.5 44q-3 31 -17 41.5t-39 10.5
q-14 0 -30.5 -7t-33 -18.5t-32 -25.5t-27.5 -27q-12 27 -44 48t-69 21q-28 0 -46.5 -11t-18.5 -38q0 -31 31.5 -50t75.5 -28l-55 -179q-63 1 -121 19.5t-102 52t-70.5 82.5t-26.5 112q0 57 19 107t55 86.5t86.5 57.5t113.5 19q39 -1 68 -9t51 -20t37 -26.5t26 -29.5z" />
    <glyph glyph-name="maichattawalowleftthai" 
d="M-1555 2347h223v156l278 61v-217h227v-246h-227v-213h-278v213h-223v246z" />
    <glyph glyph-name="maichattawalowleftthai" unicode="&#xf708;" 
d="M-1555 2347h223v156l278 61v-217h227v-246h-227v-213h-278v213h-223v246z" />
    <glyph glyph-name="thanthakhatlowleftthai" 
d="M-756 2392q-36 -14 -67 -36t-53.5 -50.5t-35.5 -63t-13 -72.5q0 -63 22 -120t54 -121l-337 -54q-19 50 -30.5 88t-19.5 76q-7 28 -10.5 53.5t-3.5 51.5q0 68 25.5 134.5t74.5 125.5t119 107t159 80z" />
    <glyph glyph-name="thanthakhatlowleftthai" unicode="&#xf709;" 
d="M-756 2392q-36 -14 -67 -36t-53.5 -50.5t-35.5 -63t-13 -72.5q0 -63 22 -120t54 -121l-337 -54q-19 50 -30.5 88t-19.5 76q-7 28 -10.5 53.5t-3.5 51.5q0 68 25.5 134.5t74.5 125.5t119 107t159 80z" />
    <glyph glyph-name="maieklowrightthai" 
d="M-212 1936h-376v575l376 63v-638z" />
    <glyph glyph-name="maieklowrightthai" unicode="&#xf70a;" 
d="M-212 1936h-376v575l376 63v-638z" />
    <glyph glyph-name="maitholowrightthai" 
d="M-970 2593q43 -7 91.5 -23.5t90 -43.5t69 -65t27.5 -87q0 -48 -9 -79.5t-20 -49.5q-13 -21 -29 -32q57 0 130 19t144.5 49.5t132 69t93.5 77.5l192 -225q-66 -66 -153.5 -116.5t-184 -84.5t-196.5 -51t-192 -17q-60 0 -118.5 2.5t-120.5 4.5l-89 227q12 4 28.5 11
t31.5 18t25.5 27t10.5 38q0 32 -15 51t-35 30t-41 16t-34 8z" />
    <glyph glyph-name="maitholowrightthai" unicode="&#xf70b;" 
d="M-970 2593q43 -7 91.5 -23.5t90 -43.5t69 -65t27.5 -87q0 -48 -9 -79.5t-20 -49.5q-13 -21 -29 -32q57 0 130 19t144.5 49.5t132 69t93.5 77.5l192 -225q-66 -66 -153.5 -116.5t-184 -84.5t-196.5 -51t-192 -17q-60 0 -118.5 2.5t-120.5 4.5l-89 227q12 4 28.5 11
t31.5 18t25.5 27t10.5 38q0 32 -15 51t-35 30t-41 16t-34 8z" />
    <glyph glyph-name="maitrilowrightthai" 
d="M-893 2479q21 28 44 50.5t52.5 38.5t66 24t84.5 8q66 0 109.5 -25.5t70 -62t37 -77t10.5 -71.5q0 -38 -9.5 -72t-31.5 -55q31 1 67.5 16.5t71.5 38t66 48t51 47.5l174 -206q-54 -58 -134 -102.5t-173.5 -75t-194.5 -47.5t-198 -20l-53 210q29 6 49.5 19t33 28.5
t18.5 31.5t6 29q0 14 -5 28.5t-15.5 26t-26.5 19t-39 7.5q-25 0 -46 -9.5t-37.5 -24t-28.5 -32.5t-19 -35q-11 17 -27.5 35t-37 32.5t-44.5 24t-50 9.5q-27 0 -46 -8.5t-31 -20.5t-17.5 -26t-5.5 -26q0 -38 35.5 -66.5t94.5 -32.5l-45 -213q-72 1 -141 24.5t-124 65.5
t-88.5 102.5t-33.5 137.5q0 61 21.5 119.5t61.5 105t98 75t131 28.5q83 0 147 -31t102 -90z" />
    <glyph glyph-name="maitrilowrightthai" unicode="&#xf70c;" 
d="M-893 2479q21 28 44 50.5t52.5 38.5t66 24t84.5 8q66 0 109.5 -25.5t70 -62t37 -77t10.5 -71.5q0 -38 -9.5 -72t-31.5 -55q31 1 67.5 16.5t71.5 38t66 48t51 47.5l174 -206q-54 -58 -134 -102.5t-173.5 -75t-194.5 -47.5t-198 -20l-53 210q29 6 49.5 19t33 28.5
t18.5 31.5t6 29q0 14 -5 28.5t-15.5 26t-26.5 19t-39 7.5q-25 0 -46 -9.5t-37.5 -24t-28.5 -32.5t-19 -35q-11 17 -27.5 35t-37 32.5t-44.5 24t-50 9.5q-27 0 -46 -8.5t-31 -20.5t-17.5 -26t-5.5 -26q0 -38 35.5 -66.5t94.5 -32.5l-45 -213q-72 1 -141 24.5t-124 65.5
t-88.5 102.5t-33.5 137.5q0 61 21.5 119.5t61.5 105t98 75t131 28.5q83 0 147 -31t102 -90z" />
    <glyph glyph-name="maichattawalowrightthai" 
d="M-792 2483h254v184l331 74v-258h257v-293h-257v-253h-331v253h-254v293z" />
    <glyph glyph-name="maichattawalowrightthai" unicode="&#xf70d;" 
d="M-792 2483h254v184l331 74v-258h257v-293h-257v-253h-331v253h-254v293z" />
    <glyph glyph-name="thanthakhatlowrightthai" 
d="M-108 2450q-39 -15 -73 -39t-58.5 -55.5t-38.5 -68.5t-14 -79q0 -69 24 -130.5t59 -131.5l-376 -59q-20 55 -32.5 96t-22.5 82q-7 31 -10.5 59t-3.5 56q0 74 29.5 146.5t84 136.5t132 116t174.5 87z" />
    <glyph glyph-name="thanthakhatlowrightthai" unicode="&#xf70e;" 
d="M-108 2450q-39 -15 -73 -39t-58.5 -55.5t-38.5 -68.5t-14 -79q0 -69 24 -130.5t59 -131.5l-376 -59q-20 55 -32.5 96t-22.5 82q-7 31 -10.5 59t-3.5 56q0 74 29.5 146.5t84 136.5t132 116t174.5 87z" />
    <glyph glyph-name="maihanakatleftthai" 
d="M-1082 2411q29 -54 66 -95q15 -18 34 -34.5t40 -30t44 -21.5t48 -8h857l-115 -282h-818q-45 1 -86 12t-76.5 29t-65.5 41t-55 47q-58 55 -103 127z" />
    <glyph glyph-name="maihanakatleftthai" unicode="&#xf710;" 
d="M-1082 2411q29 -54 66 -95q15 -18 34 -34.5t40 -30t44 -21.5t48 -8h857l-115 -282h-818q-45 1 -86 12t-76.5 29t-65.5 41t-55 47q-58 55 -103 127z" />
    <glyph glyph-name="nikhahitleftthai" 
d="M-1458 2152q0 72 27 134t72.5 107t106 71t128.5 26q70 0 131 -26t106 -71t70.5 -107t25.5 -134q0 -67 -25.5 -127t-70.5 -105t-106 -71t-131 -26q-68 0 -128.5 26t-106 71t-72.5 105t-27 127zM-1241 2152q0 -23 9.5 -44t25.5 -37t37 -25.5t45 -9.5q25 0 46.5 9.5t38 25.5
t26 37t9.5 44q0 25 -9.5 47t-26 38.5t-38 26t-46.5 9.5q-24 0 -45 -9.5t-37 -26t-25.5 -38.5t-9.5 -47z" />
    <glyph glyph-name="nikhahitleftthai" unicode="&#xf711;" 
d="M-1458 2152q0 72 27 134t72.5 107t106 71t128.5 26q70 0 131 -26t106 -71t70.5 -107t25.5 -134q0 -67 -25.5 -127t-70.5 -105t-106 -71t-131 -26q-68 0 -128.5 26t-106 71t-72.5 105t-27 127zM-1241 2152q0 -23 9.5 -44t25.5 -37t37 -25.5t45 -9.5q25 0 46.5 9.5t38 25.5
t26 37t9.5 44q0 25 -9.5 47t-26 38.5t-38 26t-46.5 9.5q-24 0 -45 -9.5t-37 -26t-25.5 -38.5t-9.5 -47z" />
    <glyph glyph-name="maitaikhuleftthai" 
d="M-1479 1898q-91 0 -158 32.5t-110.5 85.5t-65 120t-21.5 135q0 84 37 150.5t98 113.5t140 72t163 25h423q14 0 31 -0.5t36.5 3t41 13t45.5 29.5l126 -172q-28 -30 -52 -49.5t-47.5 -31t-49 -16.5t-56.5 -5h-459q-35 0 -71.5 -6.5t-66.5 -22t-49 -41t-19 -62.5
q0 -36 22 -71t53 -55l165 104l71 -44q37 -21 62 -37t43 -26.5t31 -15.5t24 -5t20.5 8.5t9.5 25.5q0 11 0.5 17.5t-1.5 12t-8.5 12t-20.5 17.5l218 88q12 -12 26.5 -28t27 -37t20.5 -46t7 -54q-2 -35 -14 -70.5t-32 -64.5q-13 -18 -31.5 -37t-44 -35t-58 -26t-74.5 -10
q-39 0 -77.5 13.5t-73.5 32t-66.5 38t-58.5 32.5z" />
    <glyph glyph-name="maitaikhuleftthai" unicode="&#xf712;" 
d="M-1479 1898q-91 0 -158 32.5t-110.5 85.5t-65 120t-21.5 135q0 84 37 150.5t98 113.5t140 72t163 25h423q14 0 31 -0.5t36.5 3t41 13t45.5 29.5l126 -172q-28 -30 -52 -49.5t-47.5 -31t-49 -16.5t-56.5 -5h-459q-35 0 -71.5 -6.5t-66.5 -22t-49 -41t-19 -62.5
q0 -36 22 -71t53 -55l165 104l71 -44q37 -21 62 -37t43 -26.5t31 -15.5t24 -5t20.5 8.5t9.5 25.5q0 11 0.5 17.5t-1.5 12t-8.5 12t-20.5 17.5l218 88q12 -12 26.5 -28t27 -37t20.5 -46t7 -54q-2 -35 -14 -70.5t-32 -64.5q-13 -18 -31.5 -37t-44 -35t-58 -26t-74.5 -10
q-39 0 -77.5 13.5t-73.5 32t-66.5 38t-58.5 32.5z" />
    <glyph glyph-name="maiekupperleftthai" 
d="M-836 2614h-324v406l324 55v-461z" />
    <glyph glyph-name="maiekupperleftthai" unicode="&#xf713;" 
d="M-836 2614h-324v406l324 55v-461z" />
    <glyph glyph-name="maithoupperleftthai" 
d="M-1151 3202q14 -3 36 -11t47 -21.5t49.5 -32.5t44.5 -43t32.5 -53.5t12.5 -64.5q0 -19 -3.5 -40t-13.5 -42q-5 -11 -9.5 -17.5t-7.5 -10.5l-7 -7q55 0 119.5 16.5t127 43.5t118.5 62.5t95 74.5l196 -204q-158 -117 -322 -174.5t-346 -63.5q-57 0 -114.5 2t-129.5 15
l-83 218q12 3 28 7.5t30.5 13t24 22t9.5 35.5q0 23 -12.5 40.5t-30 29.5t-36.5 18.5t-32 9.5z" />
    <glyph glyph-name="maithoupperleftthai" unicode="&#xf714;" 
d="M-1151 3202q14 -3 36 -11t47 -21.5t49.5 -32.5t44.5 -43t32.5 -53.5t12.5 -64.5q0 -19 -3.5 -40t-13.5 -42q-5 -11 -9.5 -17.5t-7.5 -10.5l-7 -7q55 0 119.5 16.5t127 43.5t118.5 62.5t95 74.5l196 -204q-158 -117 -322 -174.5t-346 -63.5q-57 0 -114.5 2t-129.5 15
l-83 218q12 3 28 7.5t30.5 13t24 22t9.5 35.5q0 23 -12.5 40.5t-30 29.5t-36.5 18.5t-32 9.5z" />
    <glyph glyph-name="maitriupperleftthai" 
d="M-1056 3067q50 42 103 64t94 24q49 3 88 -9.5t67.5 -36.5t44.5 -58t18 -74q2 -31 -4 -60.5t-27 -56.5q16 6 42.5 18.5t54 30t52.5 38t39 42.5l117 -172q-31 -38 -86 -73.5t-126.5 -63t-155 -45.5t-170.5 -19l-38 191q27 6 42.5 28t13.5 44q-4 30 -17.5 41t-38.5 11
q-14 0 -30.5 -7t-33 -18.5t-32 -25.5t-27.5 -27q-13 27 -44.5 48t-68.5 21q-28 0 -46.5 -11t-18.5 -38q0 -31 31.5 -50t75.5 -28l-55 -179q-63 1 -121 19.5t-102 52t-70.5 82.5t-26.5 112q0 57 19 107t55 86.5t86.5 57.5t113.5 19q39 -1 68 -10.5t50.5 -22.5t36.5 -27
t27 -25z" />
    <glyph glyph-name="maitriupperleftthai" unicode="&#xf715;" 
d="M-1056 3067q50 42 103 64t94 24q49 3 88 -9.5t67.5 -36.5t44.5 -58t18 -74q2 -31 -4 -60.5t-27 -56.5q16 6 42.5 18.5t54 30t52.5 38t39 42.5l117 -172q-31 -38 -86 -73.5t-126.5 -63t-155 -45.5t-170.5 -19l-38 191q27 6 42.5 28t13.5 44q-4 30 -17.5 41t-38.5 11
q-14 0 -30.5 -7t-33 -18.5t-32 -25.5t-27.5 -27q-13 27 -44.5 48t-68.5 21q-28 0 -46.5 -11t-18.5 -38q0 -31 31.5 -50t75.5 -28l-55 -179q-63 1 -121 19.5t-102 52t-70.5 82.5t-26.5 112q0 57 19 107t55 86.5t86.5 57.5t113.5 19q39 -1 68 -10.5t50.5 -22.5t36.5 -27
t27 -25z" />
    <glyph glyph-name="maichattawaupperleftthai" 
d="M-1358 3025h235v149l289 64v-213h239v-232h-239v-180h-289v180h-235v232z" />
    <glyph glyph-name="maichattawaupperleftthai" unicode="&#xf716;" 
d="M-1358 3025h235v149l289 64v-213h239v-232h-239v-180h-289v180h-235v232z" />
    <glyph glyph-name="thanthakhatupperleftthai" 
d="M-756 3031q-75 -29 -116 -73t-41 -122q0 -65 23 -124t56 -124l-360 -56q-20 52 -31 91.5t-20 77.5q-13 58 -13 109q0 70 32 131.5t89 114t134.5 95t168.5 75.5z" />
    <glyph glyph-name="thanthakhatupperleftthai" unicode="&#xf717;" 
d="M-756 3031q-75 -29 -116 -73t-41 -122q0 -65 23 -124t56 -124l-360 -56q-20 52 -31 91.5t-20 77.5q-13 58 -13 109q0 70 32 131.5t89 114t134.5 95t168.5 75.5z" />
    <glyph glyph-name="uni00A0" unicode="&#xa0;" horiz-adv-x="737" 
 />
    <glyph glyph-name="cent" unicode="&#xa2;" horiz-adv-x="1319" 
d="M918 1776q46 0 90.5 -14t85.5 -36q20 -11 36 -20.5t32.5 -21t34 -26t40.5 -34.5l-160 -271q-29 28 -64 51.5t-70.5 40.5t-69.5 26.5t-62 9.5q-66 0 -114 -29t-79 -90.5t-46 -156t-15 -224.5q0 -74 5.5 -133t15.5 -105t24.5 -80t32.5 -59q31 -40 77 -63t99 -23
q68 0 136 28t150 79l39 24l167 -211q-43 -43 -81.5 -71.5t-78.5 -53.5q-53 -31 -108.5 -50t-116.5 -32v-232h-275v232q-123 22 -219 83t-162 158.5t-100.5 228.5t-34.5 292q0 129 23 236t64.5 193.5t97.5 152t122 111.5q44 30 97 52t112 38v196l275 66v-262v0z" />
    <glyph glyph-name="sterling" unicode="&#xa3;" horiz-adv-x="1778" 
d="M446 332v577h-278v299h278v209q0 87 20.5 171.5t61.5 160.5t102 140.5t141.5 111.5t180.5 73.5t219 26.5q163 0 299 -49t256 -159l-211 -290q-31 29 -69 50.5t-77.5 35.5t-77 20.5t-66.5 6.5q-98 0 -163.5 -31.5t-104.5 -83t-55.5 -117t-16.5 -132.5v-144h487v-299h-487
v-577h737v-332h-1454v332h278z" />
    <glyph glyph-name="yen" unicode="&#xa5;" horiz-adv-x="1655" 
d="M-11 1989l456 90l224 -486q19 -42 41 -95.5t42 -107t37 -100t26 -73.5q10 27 28 73.5t39.5 100t44 107t42.5 95.5l205 439h483l-446 -820h299v-303h-459l-41 -73v-138h500v-299h-500v-399h-407v399h-496v299h496v138l-41 73h-455v303h295z" />
    <glyph glyph-name="copyright" unicode="&#xa9;" horiz-adv-x="2335" 
d="M1167 2122q149 0 288 -39t259.5 -110t219.5 -170.5t170 -220.5t110 -260.5t39 -289.5q0 -149 -39 -288t-109.5 -259.5t-170 -219.5t-220 -169.5t-259.5 -109.5t-288 -39t-288 39t-259.5 109.5t-219.5 169.5t-169.5 219.5t-109.5 259t-39 288.5t39 289.5t109.5 260.5
t169.5 220.5t219.5 170.5t259 110t288.5 39zM1167 209q109 0 210 29.5t188.5 83.5t160 129.5t124 167t80 196t28.5 217.5q0 114 -28.5 219t-80 196.5t-124 166.5t-160 128.5t-188.5 83t-210 29.5t-209 -29.5t-187.5 -83t-159 -128.5t-123 -166.5t-79.5 -196.5t-28 -219
q0 -112 28 -217t79.5 -196.5t123 -167t159 -129.5t187.5 -83.5t209 -29.5zM1540 578q-45 -34 -87 -57.5t-85 -38t-88 -21t-96 -6.5q-120 0 -217.5 39t-167 112t-107 175.5t-37.5 230.5q0 130 37 240.5t106.5 191t168 125.5t221.5 45q90 0 176.5 -27.5t151.5 -83.5l-112 -188
q-58 40 -113.5 54.5t-98.5 14.5q-221 0 -221 -331q0 -100 13.5 -171.5t41.5 -117t72 -67t106 -21.5q59 0 116 16t101 53z" />
    <glyph glyph-name="guillemotleft" unicode="&#xab;" horiz-adv-x="1667" 
d="M928 221l-266 -176l-531 684l531 680l266 -176l-404 -504zM1637 221l-266 -176l-531 684l531 680l266 -176l-408 -504z" />
    <glyph glyph-name="registered" unicode="&#xae;" horiz-adv-x="2335" 
d="M1167 2122q149 0 288 -39t259.5 -110t219.5 -170.5t170 -220.5t110 -260.5t39 -289.5q0 -149 -39 -288t-109.5 -259.5t-170 -219.5t-220 -169.5t-259.5 -109.5t-288 -39t-288 39t-259.5 109.5t-219.5 169.5t-169.5 219.5t-109.5 259t-39 288.5t39 289.5t109.5 260.5
t169.5 220.5t219.5 170.5t259 110t288.5 39zM1167 209q109 0 210 29.5t188.5 83.5t160 129.5t124 167t80 196t28.5 217.5q0 114 -28.5 219t-80 196.5t-124 166.5t-160 128.5t-188.5 83t-210 29.5t-209 -29.5t-187.5 -83t-159 -128.5t-123 -166.5t-79.5 -196.5t-28 -219
q0 -112 28 -217t79.5 -196.5t123 -167t159 -129.5t187.5 -83.5t209 -29.5zM1329 491q-20 32 -41 69t-40.5 73t-37 68.5t-30.5 55.5q-24 45 -42 75t-30.5 48.5t-21 29t-15 16t-11.5 8.5t-11 8v-442h-283v1114h446q82 0 148.5 -24.5t113.5 -69t73 -107t26 -139.5
q0 -63 -20 -116.5t-55 -93.5t-82 -64.5t-101 -28.5q24 -11 44.5 -28t38 -37t33.5 -42.5t31 -44.5q29 -47 59.5 -96t56.5 -91q29 -48 57 -94zM1270 1270q0 62 -34.5 88t-109.5 26h-77v-225h77q42 0 69.5 7t44 21t23.5 34.5t7 48.5z" />
    <glyph glyph-name="guillemotright" unicode="&#xbb;" horiz-adv-x="1682" 
d="M1244 729l-404 504l266 176l531 -680l-531 -684l-266 176zM539 729l-408 504l266 176l531 -680l-531 -684l-266 176z" />
    <glyph glyph-name="onequarter" unicode="&#xbc;" horiz-adv-x="2717" 
d="M278 1747q85 43 157 93t124 92q61 49 110 98h246v-815h261l-64 -272h-765v272h254v420q-38 -18 -77 -32.5t-74 -26.5q-10 -4 -23 -8.5l-26 -9t-24.5 -9t-18.5 -7.5zM1973 2068h339l-1375 -2101h-338zM1870 1117h283l-291 -635h178v282l282 85v-367h148l-75 -255h-73v-184
l-282 -85v269h-496v214z" />
    <glyph glyph-name="onehalf" unicode="&#xbd;" horiz-adv-x="2617" 
d="M2384 742q0 -51 -18.5 -102.5t-59.5 -108.5t-108.5 -122t-164.5 -144h396l-60 -263h-795v234q101 75 188 145t150.5 132t100 115t36.5 94q0 33 -23.5 54t-71.5 21q-20 0 -44.5 -8.5t-58 -28t-79 -50.5t-108.5 -76l-122 229q66 57 122.5 97.5t110.5 66t107.5 37.5
t112.5 12q84 0 155.5 -21.5t123.5 -63.5t81 -104.5t29 -144.5zM137 1746q85 43 157 93t124 92q61 49 110 98h246v-815h261l-64 -272h-765v272h254v420q-40 -18 -83.5 -34.5t-78.5 -28.5l-81 -29zM1840 2068h339l-1375 -2101h-338z" />
    <glyph glyph-name="threequarters" unicode="&#xbe;" horiz-adv-x="2302" 
d="M466 1628h94q34 0 56.5 14t32.5 35.5t8.5 46t-14.5 46t-37.5 35.5t-59.5 14q-26 0 -55.5 -5t-63 -19.5t-71.5 -40t-82 -67.5l-102 195q36 36 83.5 68.5t99 56.5t102.5 38t95 14q81 0 147 -20t113 -58.5t73 -95.5t28 -131q0 -55 -27 -111.5t-84 -97.5q65 -37 97.5 -99.5
t32.5 -143.5q0 -61 -24.5 -110t-65.5 -86t-96 -63.5t-116 -43t-124.5 -23t-121.5 -4.5q-29 1 -55.5 3t-46.5 4q-24 2 -45 4l-80 235q51 -5 102 -9q44 -3 92.5 -4.5t90.5 1.5q67 4 109.5 24t64 47t23.5 57t-12.5 55.5t-44.5 42.5t-72 17q-23 0 -38.5 0.5t-30.5 0.5t-32 -1
t-42 -3zM1622 1117h283l-291 -635h178v282l282 85v-367h148l-75 -255h-73v-184l-282 -85v269h-496v214zM1691 2068h339l-1375 -2101h-338z" />
    <glyph glyph-name="multiply" unicode="&#xd7;" horiz-adv-x="1575" 
d="M281 1602l513 -509q125 127 253 256.5t252 255.5l258 -243l-513 -522l514 -527l-263 -240l-501 517l-513 -517l-249 249l514 518l-514 513z" />
    <glyph glyph-name="divide" unicode="&#xf7;" horiz-adv-x="1470" 
d="M53 1069h1368v-369h-1368v369zM496 1405q0 50 19 94t52 77t77 52t94 19t94 -19t77 -52t52 -77t19 -94t-19 -94t-52 -77t-77 -52t-94 -19t-94 19t-77 52t-52 77t-19 94zM496 361q0 50 19 94t52 77t77 52t94 19t94 -19t77 -52t52 -77t19 -94t-19 -94t-52 -77t-77 -52
t-94 -19t-94 19t-77 52t-52 77t-19 94z" />
    <glyph glyph-name="kokaithai" unicode="&#xe01;" horiz-adv-x="1775" 
d="M246 882q0 90 -2.5 137.5t-16.5 70.5l-139 201q91 71 192.5 131.5t210.5 105t223.5 70t231.5 25.5q112 0 203 -17.5t162.5 -55.5t124.5 -98t89 -146q13 -30 20.5 -65t12 -72.5t6 -76t1.5 -75.5v-1017h-402v968q0 63 -6 119.5t-30 99t-73 68t-136 25.5q-51 0 -99.5 -8.5
t-90.5 -21.5t-76 -28t-56 -27q7 -17 16 -37t17 -43t13.5 -50.5t5.5 -59.5v-1005h-402v882z" />
    <glyph glyph-name="khokhaithai" unicode="&#xe02;" horiz-adv-x="1612" 
d="M999 1527l403 98v-1095q0 -55 -9.5 -119t-34.5 -127.5t-70 -123t-116 -105t-172 -73t-238 -27.5q-126 0 -233 40.5t-184.5 111t-121 166t-43.5 206.5v102q0 66 23.5 124t60 111t82.5 101t91 93l17 17q19 19 42 40t42.5 43.5t33 46.5t13.5 48q0 42 -22.5 71t-66.5 29
q-20 0 -52.5 -12t-77.5 -42q-25 -17 -50 -35t-45 -32q-24 -18 -45 -33l-183 274q60 40 122.5 76t128.5 63t135.5 43t143.5 16q78 0 145 -13.5t116 -47t77 -91t28 -144.5q0 -36 -9 -77t-32 -92t-62 -113t-99 -139q-52 -67 -96.5 -150t-60.5 -183q-2 -9 -2 -28.5v-28.5
q0 -43 12 -85.5t38.5 -76.5t67.5 -55t99 -21q44 0 81.5 16t65 48.5t43 81t15.5 114.5z" />
    <glyph glyph-name="khokhuatthai" unicode="&#xe03;" horiz-adv-x="1687" 
d="M1031 1305q0 -57 -13 -105.5t-38.5 -95.5t-62 -97t-83.5 -111q-27 -36 -51.5 -70t-44.5 -69.5t-35.5 -75t-25.5 -85.5q-2 -11 -3 -31.5t-1 -40.5q0 -53 10 -101.5t34.5 -86.5t65.5 -60.5t102 -22.5q41 0 75.5 20.5t60 56.5t40 86t14.5 109v1003l402 96v-1090
q0 -55 -8.5 -119t-33 -128t-67.5 -124t-112.5 -106t-168.5 -73.5t-234 -27.5q-123 0 -228.5 38.5t-183.5 107t-122 162t-44 204.5v124q0 64 20 116.5t53.5 100.5t77 94.5t91.5 98.5q37 40 77.5 85t72.5 85q6 7 13 18.5t13 22.5t10 21.5t5 16.5q3 32 -14.5 57t-49.5 30
q-30 4 -51 -9t-38 -29l-179 -184q-91 72 -157 124.5t-111 87.5q-52 40 -88 68l186 226q25 -17 56 -40q26 -20 61 -47t77 -61q49 47 86 76t71 45t69.5 21.5t82.5 5.5q76 0 136 -24t101.5 -67t63 -101t21.5 -125z" />
    <glyph glyph-name="khokhwaithai" unicode="&#xe04;" horiz-adv-x="1776" 
d="M612 -1h-402v1101q0 99 45.5 193.5t134 168t219.5 118t301 44.5q142 0 262 -38.5t207.5 -107.5t137 -165.5t49.5 -212.5v-1101h-402v1062q0 50 -19.5 91.5t-57 71t-92.5 46t-126 16.5q-43 0 -88.5 -11t-83 -34t-61.5 -59.5t-24 -88.5v-252q58 54 127 81t140 27
q44 0 86 -9.5t100 -32.5l-93 -293q-22 6 -46 11q-20 5 -45 8t-49 4q-44 0 -80.5 -13t-64.5 -34t-47 -46t-28 -48v-497z" />
    <glyph glyph-name="khokhonthai" unicode="&#xe05;" horiz-adv-x="1829" 
d="M612 839q58 54 127 81t140 27q44 0 86 -9.5t100 -32.5l-93 -293q-22 6 -46 11q-20 5 -45 8t-49 4q-44 0 -80.5 -13t-64.5 -34t-47 -46t-28 -48v-494h-402v938q0 133 32.5 248t100.5 205t173 151t250 86l176 -143l162 144q119 -19 214.5 -62.5t162 -109.5t102.5 -153.5
t36 -193.5v-1110h-401v1115q0 63 -10.5 100.5t-30.5 60.5l-234 -193l-231 187q-18 -14 -35.5 -34t-32 -49.5t-23.5 -71t-9 -98.5v-178z" />
    <glyph glyph-name="khorakhangthai" unicode="&#xe06;" horiz-adv-x="1788" 
d="M681 488q36 -36 80.5 -68.5t90 -56.5t88.5 -38.5t76 -14.5q49 0 80 14t49 41t24.5 68t6.5 95v994l402 100v-1181q0 -96 -36 -181.5t-102.5 -149t-160.5 -100.5t-209 -37q-54 0 -110 14.5t-110.5 40t-106 60t-94.5 73.5q-9 -38 -29.5 -72.5t-41.5 -60.5q-25 -31 -53 -57
l-341 90q25 25 45 64q17 33 31 84t14 122v118v45.5t0.5 42t0.5 34.5v21q0 64 20 116.5t53.5 100.5t77 94.5t91.5 98.5q37 40 77.5 85t72.5 85q13 15 26 38.5t15 40.5q5 32 -13.5 57t-50.5 30q-30 4 -51 -9t-38 -29l-179 -184q-91 72 -157 124.5t-111 87.5q-52 40 -88 68
l186 226q25 -17 56 -40q26 -20 61 -47t77 -61q49 47 86 76t71 45t69.5 21.5t82.5 5.5q76 0 136 -24t101.5 -67t63 -101t21.5 -125q0 -57 -13 -105.5t-38.5 -95.5t-62 -97t-83.5 -111q-27 -36 -51 -70t-44 -69.5t-35 -75t-25 -85.5z" />
    <glyph glyph-name="ngonguthai" unicode="&#xe07;" horiz-adv-x="1402" 
d="M790 872q0 86 -8 155t-37.5 123.5t-86 97.5t-153.5 76l223 302q133 -48 222 -106.5t143 -136.5t76.5 -182t22.5 -243v-410q0 -53 -5 -116.5t-23.5 -128t-54.5 -125.5t-98.5 -108t-155.5 -75.5t-224 -28.5q-20 0 -48 3.5t-58 10t-59.5 15t-52.5 17.5l-376 1100l364 87
l309 -913q25 10 40.5 32.5t24.5 54.5t12 72.5t3 86.5v340z" />
    <glyph glyph-name="chochanthai" unicode="&#xe08;" horiz-adv-x="1581" 
d="M1371 496q0 -48 -2.5 -106t-17 -116.5t-45.5 -114t-88.5 -98t-145.5 -68.5t-216 -26q-22 0 -55 4t-69 10.5t-70 15t-57 17.5l-181 636q-15 53 -39.5 95t-47.5 72q-27 35 -57 63l321 206q33 -19 65 -56q27 -32 57.5 -85.5t53.5 -138.5q19 -72 36 -138t33 -131t32.5 -131.5
t36.5 -139.5q20 13 31 37t16 53t6 61.5t1 63.5v571q0 53 -3.5 96.5t-22.5 74t-59.5 47t-113.5 16.5q-41 0 -90.5 -8.5t-103 -23t-107.5 -33.5t-104 -39.5t-93 -42t-74 -40.5l-184 257q94 61 192 110.5t198 84.5t200.5 54t198.5 19q91 0 174.5 -18t153 -53.5t121 -88
t79.5 -121.5q15 -38 23.5 -80t12 -88.5t4 -96.5t0.5 -105v-477z" />
    <glyph glyph-name="chochingthai" unicode="&#xe09;" horiz-adv-x="1726" 
d="M1514 331q0 -81 20.5 -146t68.5 -122l-335 -94q-25 19 -59.5 60.5t-60.5 109.5h-1q-49 -36 -100 -68.5t-103.5 -56.5t-105.5 -38.5t-105 -14.5q-110 0 -198 36.5t-150 100.5t-95.5 152t-33.5 191v155q0 74 -10 123t-22 78q-14 34 -31 53l369 170q26 -36 47 -80
q18 -38 33 -89t15 -112v-225q0 -38 2 -77t14 -70t39.5 -50.5t78.5 -19.5q34 0 75.5 13t84.5 36.5t84.5 55t76.5 68.5v509q0 63 -5.5 118.5t-29.5 97.5t-72 66.5t-133 24.5q-78 0 -155.5 -14.5t-158 -42.5t-164 -69t-173.5 -93l-181 256q98 66 201.5 121.5t210.5 95t216 62
t217 22.5q126 0 222 -14.5t165.5 -46t116 -82t74.5 -123t39.5 -168t11.5 -217.5v-642z" />
    <glyph glyph-name="chochangthai" unicode="&#xe0a;" horiz-adv-x="1550" 
d="M1340 552q0 -55 -7.5 -120t-30 -130.5t-63.5 -126.5t-108.5 -108.5t-165 -76t-232.5 -28.5q-123 0 -229.5 40.5t-184.5 111t-123 166t-45 206.5v93q0 70 23 132.5t60.5 118.5t83.5 107t93 99l49 49q22 22 43 45t37.5 44.5t27 41.5t10.5 35q0 28 -16.5 38.5t-40.5 10.5
q-32 0 -76.5 -15.5t-89.5 -37.5t-85 -45.5t-63 -39.5l-158 286q59 37 128 69.5t139.5 56t138 37t123.5 13.5q38 0 84 -5t91.5 -23t87.5 -53.5t71 -95.5q65 39 136 126.5t137 237.5l358 -151q-25 -62 -61.5 -122t-82 -115t-98 -102.5t-108.5 -83.5q71 -67 109 -163t38 -220
v-302zM938 842q0 72 -16.5 128t-49.5 84q-14 -21 -32 -44.5t-38 -47t-40.5 -46.5t-38.5 -42q-23 -26 -53 -61t-57 -74.5t-45.5 -81t-18.5 -79.5v-36q0 -56 12 -102t38 -79t67 -51t100 -18q39 0 71 18t54.5 52t34.5 81.5t12 106.5v292z" />
    <glyph glyph-name="sosothai" unicode="&#xe0b;" horiz-adv-x="1645" 
d="M990 1417q51 21 92 53.5t78 80.5t72.5 113.5t75.5 153.5l327 -139q-47 -131 -138 -238.5t-206 -185.5q31 -15 58 -48t46.5 -77t30.5 -97t11 -108v-371q0 -55 -7.5 -120t-29.5 -130.5t-63.5 -126.5t-108.5 -108.5t-164.5 -76t-232.5 -28.5q-123 0 -229.5 40.5t-185 111
t-123 166.5t-44.5 207v84q0 47 20 100.5t53.5 109t77 111.5t91.5 108q37 40 78 84.5t72 85.5q20 27 29.5 47t11.5 32q2 32 -15 57t-49 30q-30 4 -51 -9t-38 -29l-179 -184q-91 72 -157 124.5t-111 87.5q-52 40 -88 68l186 226q25 -17 56 -40q26 -20 61 -47t77 -61
q49 47 86 76t71 45t69.5 21.5t82.5 5.5q60 0 109.5 -15t88 -42t65.5 -64.5t42 -83.5h2zM808 896q-27 -36 -55.5 -78t-51 -84t-37 -80t-14.5 -66v-69q0 -47 13 -88t38.5 -71.5t64 -48.5t89.5 -18q94 0 137 68.5t43 189.5v365q0 22 -3.5 52.5t-12.5 59t-24.5 51t-39.5 29.5
q-25 -48 -62 -98.5t-85 -113.5z" />
    <glyph glyph-name="chochoethai" unicode="&#xe0c;" horiz-adv-x="2484" 
d="M1460 144q-11 -34 -26 -61.5t-32 -49t-33 -37t-28 -24.5l-330 91q39 48 59 100t26 115v720q0 58 -3.5 111t-24.5 93t-65.5 63.5t-126.5 23.5q-73 0 -145.5 -20t-153.5 -55q14 -33 26 -83t12 -109v-538q0 -46 4.5 -83t26.5 -63.5t66 -40.5t124 -14l51 -278
q-17 -5 -42.5 -11t-53 -11t-54.5 -8t-48 -3q-98 0 -186.5 22.5t-155.5 74.5t-105 136.5t-36 209.5l8 468q1 92 -2 140t-17 69l-138 204q90 71 189.5 132t207 105.5t221 70t230.5 25.5q114 0 202.5 -19t155.5 -58.5t114.5 -99.5t80.5 -142q14 -35 22 -83t12 -97.5t5 -93.5
t1 -71v-484q13 -22 40 -53t61 -59.5t72.5 -48.5t75.5 -20q46 0 71.5 19t37.5 50.5t14 72.5t2 85v1002l402 97v-1175q0 -107 -36.5 -195t-100.5 -151t-151 -98t-187 -35q-48 0 -95 14.5t-90.5 38.5t-82.5 55t-71 64z" />
    <glyph glyph-name="yoyingthai" unicode="&#xe0d;" horiz-adv-x="2455" 
d="M1097 990q0 34 -1 69t-7.5 67.5t-19.5 60.5t-36.5 49t-59.5 33t-88 12q-76 0 -150.5 -17t-161.5 -55q17 -34 31.5 -83.5t14.5 -119.5v-517q0 -50 3.5 -89.5t24 -67t65.5 -42.5t129 -15l42 -268q-15 -4 -38.5 -10t-50.5 -11t-53 -9t-45 -4q-98 0 -185 22t-152.5 71.5
t-103.5 128t-38 191.5v512q0 45 -0.5 79.5t-2 60t-5 44t-10.5 33.5l-133 186q85 67 183 125.5t204.5 102t219.5 68.5t228 25t204.5 -19.5t157.5 -58t116 -96.5t80 -134q14 -35 22 -82t12 -95.5t5 -92t1 -69.5v-425q0 -51 8 -94.5t28 -75.5t54 -50t86 -18q43 0 74.5 19.5
t52.5 54.5t31 85t10 112v950l401 97l1 -1468q0 -66 -12.5 -137.5t-43 -141t-80 -132t-123 -109.5t-174 -75t-231.5 -28q-92 0 -176 18t-155.5 49.5t-127 75.5t-90.5 96l274 206q46 -48 87 -76t78.5 -42.5t73 -18.5t71.5 -4q40 0 80 17t72 48.5t52.5 76t22.5 100.5
q-14 -10 -32 -23.5t-44.5 -26t-63 -21t-87.5 -8.5q-128 0 -225.5 36.5t-162.5 102t-98 156t-33 197.5v492z" />
    <glyph glyph-name="dochadathai" unicode="&#xe0e;" horiz-adv-x="1804" 
d="M878 -482q-14 -11 -32 -27t-37 -37.5t-38 -47.5t-35 -55l-305 154q44 75 101 133.5t121 101.5t131.5 70t132.5 39l272 -142q3 21 3 48v1227q0 64 -7 120.5t-33.5 98.5t-78 66t-139.5 24q-72 0 -145.5 -18.5t-151.5 -49.5q18 -27 33 -58t26.5 -63.5t18 -66t6.5 -65.5v-596
q0 -98 -34 -172.5t-94 -124.5t-141.5 -75.5t-176.5 -25.5q-20 0 -43.5 1t-65.5 7l-89 279q86 0 134.5 13t72.5 35.5t29.5 54t5.5 67.5v442q0 49 -5.5 84t-15.5 61.5t-22.5 46.5t-26.5 40l-154 187q95 73 202 134t217.5 105t219.5 68.5t208 24.5q229 0 386 -80t226 -238
q13 -33 21 -75t12 -85t5.5 -82.5t1.5 -67.5v-1205q0 -81 -22.5 -157t-73.5 -134.5t-133.5 -95t-203.5 -37.5z" />
    <glyph glyph-name="topatakthai" unicode="&#xe0f;" horiz-adv-x="1803" 
d="M1594 -229q0 -73 -17.5 -144.5t-65 -128t-132 -91.5t-218.5 -35l-183 141l-207 -163l-245 167q-32 -22 -75 -64t-92 -99l-235 231q41 53 95.5 99.5t110.5 83t109.5 62.5t93.5 38l235 -158q50 39 105 83t103 81l216 -144v14l-1 1230q0 64 -7 119.5t-33 96t-77 63.5
t-140 23q-74 0 -146 -14.5t-153 -45.5q18 -27 34 -58.5t27.5 -64.5t18.5 -66.5t7 -64.5v-585q0 -103 -37 -178t-101 -124t-151 -72.5t-187 -23.5h-79l-90 288q90 0 139 15t72 39t27.5 53.5t4.5 58.5v443q0 52 -5.5 87t-14.5 59.5t-21 42t-26 35.5q-11 12 -31 38
q-17 22 -47.5 59t-78.5 94q90 70 191.5 130.5t211.5 105.5t226 70.5t234 25.5q229 0 377.5 -77.5t213.5 -240.5v1q16 -39 25 -85t13.5 -93.5t5 -94.5t0.5 -87v-1175z" />
    <glyph glyph-name="thothanthai" unicode="&#xe10;" horiz-adv-x="1578" 
d="M321 -228q19 -54 51.5 -87t67 -50t65.5 -22.5t49 -5.5l165 150l207 -150q43 0 60 32t17 103v98l363 70v-201q0 -95 -33.5 -162.5t-95.5 -110.5t-151.5 -63t-201.5 -20l-165 129l-150 -129q-89 -8 -162 0t-132.5 35t-108 75.5t-88.5 122.5zM1371 497q0 -48 -2.5 -106
t-17 -116.5t-45.5 -114t-88.5 -98t-145.5 -68.5t-216 -26q-22 0 -55 4t-69 10.5t-70 15t-57 17.5l-177 642q-15 53 -39.5 95t-47.5 72q-27 35 -57 63l321 206q31 -17 62 -52q26 -30 55 -83t52 -138q19 -72 36.5 -140t34 -135.5t33.5 -136t37 -141.5q20 13 31 37t16 53
t6 61.5t1 63.5v578q0 53 -3.5 95t-22.5 71t-59.5 44.5t-113.5 15.5q-41 0 -90.5 -8.5t-103 -23t-107.5 -33.5t-104 -39.5t-93 -42t-74 -40.5l-184 257q94 61 192 110.5t198 84.5t200.5 54t198.5 19q39 0 78.5 -4.5t84.5 -11.5q42 -6 80.5 -4t69.5 13q34 11 65 27t61.5 39.5
t63 54.5t69.5 73l269 -234q-35 -41 -73.5 -73.5t-79.5 -57.5t-83.5 -44.5t-85.5 -34.5q-1 0 -1.5 0.5t-1.5 0.5l12 -25q15 -38 23 -79t12 -85.5t4.5 -93.5t0.5 -104v-484z" />
    <glyph glyph-name="thonangmonthothai" unicode="&#xe11;" horiz-adv-x="1862" 
d="M910 1494q88 70 173.5 100.5t166.5 29.5q203 -2 302.5 -125t99.5 -352v-1147h-402v1133q0 24 -1.5 50t-8.5 48t-21.5 36t-41.5 14q-32 0 -74.5 -28.5t-87.5 -77t-88.5 -112.5t-78 -134.5t-55.5 -143t-21 -138.5v-647h-402v627q0 48 5 90.5t18.5 84.5t37.5 86t63 94
q36 47 66.5 82.5t62.5 75.5q6 7 13 18.5t13 22.5t10 21.5t5 16.5q2 32 -15 57t-49 30q-30 4 -51 -9t-38 -29l-155 -152q-91 72 -157 124.5t-111 87.5q-52 40 -88 68l186 226q22 -17 50 -38q24 -19 56.5 -45t74.5 -60q45 46 82 75t73 44.5t73.5 21t82.5 4.5q74 -2 131 -35.5
t101 -94.5z" />
    <glyph glyph-name="thophuthaothai" unicode="&#xe12;" horiz-adv-x="2594" 
d="M1548 152q-13 -36 -29 -65t-32.5 -52t-32 -39.5t-28.5 -26.5l-332 94q48 57 68.5 122t20.5 146v831q0 61 -11 90t-33 44l-230 -179l-214 174q-20 -15 -40.5 -36t-37.5 -49.5t-28 -64.5t-11 -82v-302q0 -80 2.5 -157t17.5 -139.5t47 -106t91 -55.5q38 -9 78.5 -2t75.5 16
l56 -286q-10 -4 -40 -12t-67.5 -16.5t-77 -14.5t-69.5 -6q-120 0 -205 38.5t-142 100.5t-91 141t-51 160t-22 157t-5 133v239q0 129 33.5 242t101.5 202t172.5 149.5t245.5 86.5l179 -148l164 148q119 -19 214 -62.5t161.5 -109t102 -150.5t35.5 -186v-624q25 -38 56.5 -73
t67 -61.5t73 -42.5t73.5 -16q46 0 72 20t38 53t14.5 74.5t2.5 85.5v1014l402 75v-1190q0 -105 -37 -191.5t-101 -147.5t-150.5 -94.5t-186.5 -33.5q-47 0 -96 15.5t-96 41t-90 59t-79 69.5z" />
    <glyph glyph-name="nonenthai" unicode="&#xe13;" horiz-adv-x="2516" 
d="M229 1004q0 15 -1 31t-2.5 30t-4 24t-5.5 13l-147 203q88 68 188 127t208 102.5t222 68.5t231 25q114 0 202.5 -19t155 -58.5t114.5 -99t82 -140.5q22 -53 33 -131t11 -188v-490q0 -41 2 -77t13 -62t34 -41t65 -15q44 0 84 14t75 39t64 59t50 74v1058l402 74v-1294
q0 -81 21.5 -146t69.5 -122l-335 -94q-26 20 -62.5 64.5t-62.5 118.5q-36 -36 -79.5 -69t-90 -58t-94.5 -39.5t-95 -14.5q-100 0 -185 34.5t-146.5 97t-96.5 149.5t-35 192v561q0 60 -4 112.5t-25 91.5t-65.5 62t-126.5 23q-72 0 -142.5 -18t-155.5 -52q14 -35 25 -83.5
t11 -114.5v-574q0 -77 20.5 -115.5t81.5 -38.5q9 0 37 1.5t82 12.5l71 -290q-77 -23 -149.5 -37t-138.5 -14q-57 0 -110.5 11t-106.5 37q-101 49 -145 143t-44 229v613z" />
    <glyph glyph-name="dodekthai" unicode="&#xe14;" horiz-adv-x="1701" 
d="M131 888q0 166 38 302.5t122.5 233t220.5 149.5t332 53q142 0 260.5 -37t204.5 -107.5t134 -171.5t48 -230v-1080h-402v1035q0 124 -70 194.5t-208 70.5q-61 0 -111.5 -21t-87 -65t-57 -114t-20.5 -167v-223q0 -68 6 -135t24 -123t50 -94.5t84 -48.5q51 -10 103 0.5
t106 21.5l50 -286q-34 -12 -75 -22t-83 -16.5t-81 -10.5t-68 -4q-128 0 -216 37.5t-146 100t-90 143t-47 167t-18 171.5t-3 156v121z" />
    <glyph glyph-name="totaothai" unicode="&#xe15;" horiz-adv-x="1750" 
d="M131 956q0 130 34 243t103 201.5t174 149.5t246 86l178 -148l161 148q121 -19 216 -61t161 -106t101 -149.5t35 -191.5v-1128h-402l4 1173q0 51 -16 84.5t-44 48.5l-214 -179l-231 185q-19 -15 -37.5 -36.5t-33.5 -50.5t-24 -65.5t-9 -82.5v-340q0 -79 3 -151.5t19 -130
t48 -96t91 -49.5q51 -9 105 -2.5t108 17.5l56 -280q-36 -12 -79 -22t-86.5 -16.5t-83 -10.5t-67.5 -4q-119 0 -203.5 36t-142 94.5t-91 133.5t-51.5 152.5t-23 151.5t-5 132v264z" />
    <glyph glyph-name="thothungthai" unicode="&#xe16;" horiz-adv-x="1749" 
d="M1137 986q0 66 -5.5 122t-29.5 97t-72.5 64.5t-135.5 23.5q-78 0 -157 -18t-161 -50q16 -37 27.5 -87.5t11.5 -110.5v-529q0 -39 6 -76t28 -66t64 -47t114 -18l64 -277q-16 -5 -41.5 -10t-54 -9.5t-57 -7.5t-49.5 -3q-98 0 -184.5 25t-151 78.5t-102 135.5t-37.5 196v426
q0 39 -0.5 80.5t-3 78t-6 63.5t-9.5 36l-138 202q90 68 193 127t213.5 102.5t226.5 68.5t232 25q221 0 366 -79t215 -232q17 -38 26.5 -126t9.5 -223v-968h-402v986z" />
    <glyph glyph-name="thothahanthai" unicode="&#xe17;" horiz-adv-x="1697" 
d="M209 1190q0 75 -16.5 141t-36.5 117q-23 59 -52 109l403 75q12 -15 24 -38q11 -20 24 -51t26 -76q101 81 204.5 130t214.5 49q98 0 186.5 -35t155 -98t106 -150.5t39.5 -192.5v-1170h-402v1051q0 44 -4 89.5t-18 82.5t-41.5 60.5t-74.5 23.5q-46 0 -93.5 -16t-92 -42
t-83 -59t-67.5 -67v-1123h-402v1190v0z" />
    <glyph glyph-name="thothongthai" unicode="&#xe18;" horiz-adv-x="1632" 
d="M774 1637q73 0 163 -12.5t182 -35t178.5 -53.5t152.5 -69l-154 -314q-63 33 -133 60t-139 47t-134.5 31t-119.5 11q-46 0 -85.5 -7.5t-69 -20.5t-46 -30.5t-16.5 -37.5q0 -18 22.5 -35t57 -32.5t75.5 -29t77 -24.5l342 -108q120 -38 194.5 -83.5t116 -101t55.5 -122.5
t14 -149q0 -133 -48.5 -237.5t-138.5 -176.5t-219 -110t-290 -38q-75 0 -156 12.5t-162.5 36.5t-161 59t-151.5 80v522l402 85v-418q115 -43 245 -43q54 0 103 11.5t86.5 34.5t59.5 56t22 77q0 33 -5.5 65t-22.5 61t-49.5 53.5t-86.5 42.5l-342 116q-36 12 -83 25.5
t-97.5 32.5t-99.5 45.5t-87.5 64.5t-62 89t-23.5 119q0 107 49 191t134.5 141.5t201.5 88t250 30.5z" />
    <glyph glyph-name="nonuthai" unicode="&#xe19;" horiz-adv-x="1697" 
d="M611 554q0 -45 3.5 -91.5t17.5 -84t41.5 -61t76.5 -23.5q45 0 90.5 13.5t88.5 38t82.5 59t73.5 76.5v1072l402 74v-1310q2 -69 23.5 -134.5t66.5 -119.5l-335 -94q-13 10 -28.5 25.5t-32 37t-32.5 50t-29 63.5q-49 -44 -102 -78.5t-107.5 -58.5t-108.5 -36.5t-105 -12.5
q-98 0 -186.5 34.5t-155.5 96.5t-106.5 149.5t-39.5 192.5v722q0 74 -14 139.5t-31 115.5q-20 58 -45 107l398 115q26 -54 47 -110q17 -49 32 -107.5t15 -115.5v-744z" />
    <glyph glyph-name="bobaimaithai" unicode="&#xe1a;" horiz-adv-x="1718" 
d="M209 1161q0 75 -15 140.5t-33 115.5q-21 58 -48 106l395 109q28 -55 51 -111q20 -48 36 -105.5t16 -110.5v-772q0 -52 14.5 -95t46 -73.5t81.5 -47.5t120 -17q42 0 84 11t75 35t53.5 61t20.5 89v1057l402 75v-1141q0 -98 -41.5 -191.5t-125.5 -166.5t-211 -118t-298 -45
q-146 0 -260.5 34.5t-195 101t-123.5 163.5t-44 222v674z" />
    <glyph glyph-name="poplathai" unicode="&#xe1b;" horiz-adv-x="1781" 
d="M209 1173q0 75 -15 140.5t-33 115.5q-21 58 -48 106l395 109q28 -55 51 -111q20 -48 36 -105.5t16 -110.5v-784q0 -52 19.5 -95t57 -73.5t92 -47.5t124.5 -17q42 0 89 11t86 35t64.5 61t25.5 89l-1 1897l403 70v-1976q0 -98 -46.5 -191.5t-136.5 -166.5t-222 -118
t-303 -45q-146 0 -265.5 34.5t-205.5 101t-134 163.5t-49 222v686z" />
    <glyph glyph-name="phophungthai" unicode="&#xe1c;" horiz-adv-x="1727" 
d="M107 892q0 58 5 134t22 157.5t50.5 160t90.5 140.5t141 100t203 38q28 0 67.5 -4t82.5 -10.5t86 -16.5t79 -22l-56 -314q-25 8 -53 16t-54 14.5t-48.5 10.5t-37.5 4q-41 0 -70 -16.5t-48.5 -44.5t-31 -65.5t-17.5 -79.5t-7.5 -85.5t-1.5 -84.5v-322q0 -56 8 -98t21 -73.5
t30.5 -53.5t35.5 -37q57 50 119.5 105t117.5 103l224 -207q12 9 21 19t15.5 27.5t10 45t3.5 71.5v1046l402 74v-1148q0 -108 -35.5 -194.5t-102.5 -151t-163.5 -106.5t-217.5 -61l-159 172l-176 -172q-142 27 -246.5 88.5t-173.5 150t-102.5 202t-33.5 244.5v244z" />
    <glyph glyph-name="fofathai" unicode="&#xe1d;" horiz-adv-x="1727" 
d="M107 892q0 58 5 134t22 157.5t50.5 160t90.5 140.5t141 100t203 38q28 0 67.5 -4t82.5 -10.5t86 -16.5t79 -22l-56 -314q-25 8 -53 16t-54 14.5t-48.5 10.5t-37.5 4q-41 0 -70 -16.5t-48.5 -44.5t-31 -65.5t-17.5 -79.5t-7.5 -85.5t-1.5 -84.5v-322q0 -56 8 -98t21 -73.5
t30.5 -53.5t35.5 -37q57 50 119.5 105t117.5 103l224 -207q12 9 21 19t15.5 27.5t10 45t3.5 71.5v1880l402 76v-1984q0 -108 -35.5 -194.5t-102.5 -151t-163.5 -106.5t-217.5 -61l-159 172l-176 -172q-142 27 -246.5 88.5t-173.5 150t-102.5 202t-33.5 244.5v244z" />
    <glyph glyph-name="phophanthai" unicode="&#xe1e;" horiz-adv-x="2150" 
d="M609 403q0 -36 10.5 -63t26.5 -44.5t35.5 -26t37.5 -8.5q44 0 74 17t48 43t26 56.5t8 58.5v1117l398 73v-1142q0 -48 6.5 -88.5t21 -70.5t38 -47t58.5 -17q39 0 66 15t43.5 47.5t24 84t7.5 125.5v1019l402 74v-1082q0 -52 -5.5 -115.5t-23.5 -128t-52.5 -125.5
t-93 -108.5t-144.5 -76t-206 -28.5q-63 0 -119 13.5t-104 38t-87.5 58t-69.5 73.5q-45 -50 -95 -85t-102 -57t-106 -32t-107 -10q-102 0 -180 36t-130.5 100t-79.5 153t-27 196v714q0 75 -15 140t-33 115q-21 57 -48 106l394 110q10 -14 27.5 -46t34 -76t29 -96.5
t12.5 -108.5v-901z" />
    <glyph glyph-name="fofanthai" unicode="&#xe1f;" horiz-adv-x="2150" 
d="M609 403q0 -36 10.5 -63t26.5 -44.5t35.5 -26t37.5 -8.5q44 0 74 17t48 43t26 56.5t8 58.5v1117l398 73v-1142q0 -48 6.5 -88.5t21 -70.5t38 -47t58.5 -17q39 0 66 15t43.5 47.5t24 84t7.5 125.5v1858l402 74v-1921q0 -52 -5.5 -115.5t-23.5 -128t-52.5 -125.5
t-93 -108.5t-144.5 -76t-206 -28.5q-63 0 -119 13.5t-104 38t-87.5 58t-69.5 73.5q-45 -50 -95 -85t-102 -57t-106 -32t-107 -10q-102 0 -180 36t-130.5 100t-79.5 153t-27 196v714q0 75 -15 140t-33 115q-21 57 -48 106l394 110q28 -55 51 -111q20 -48 36 -105.5t16 -110.5
v-901z" />
    <glyph glyph-name="phosamphaothai" unicode="&#xe20;" horiz-adv-x="1803" 
d="M320 883q0 46 -5.5 80t-14.5 60t-22 46.5t-28 39.5h1l-155 188q90 70 192.5 130.5t213 105.5t227 70.5t234.5 25.5q226 0 373 -77.5t214 -240.5q16 -39 25 -84.5t13 -93t5 -94t1 -87.5v-952h-402v983q0 66 -7 122.5t-32.5 98.5t-76 66t-137.5 24q-75 0 -150.5 -18
t-154.5 -48q38 -56 63 -123t25 -130v-582q0 -103 -37 -178.5t-101 -124.5t-151 -72.5t-187 -23.5h-79l-90 300q91 1 140.5 15t72 37t26.5 53.5t4 66.5v417z" />
    <glyph glyph-name="momathai" unicode="&#xe21;" horiz-adv-x="1699" 
d="M207 1157q0 75 -15 140.5t-33 115.5q-21 58 -48 106l395 109q28 -55 51 -111q20 -48 36 -105.5t16 -110.5v-812q36 -40 79 -73.5t87.5 -57.5t88 -37t81.5 -13q47 0 75 22.5t43 56.5t19.5 73.5t4.5 74.5v1016l402 74v-1181q0 -105 -40 -192.5t-107.5 -149.5t-155.5 -96.5
t-184 -34.5q-53 0 -110 15t-112.5 40.5t-107 59t-94.5 71.5q-13 -38 -29.5 -68.5t-33 -53.5t-33 -39.5t-29.5 -26.5l-335 94q48 57 68.5 122t20.5 146v826z" />
    <glyph glyph-name="yoyakthai" unicode="&#xe22;" horiz-adv-x="1704" 
d="M537 520q0 -52 19.5 -94.5t57.5 -73t93.5 -47t128.5 -16.5q42 0 87 12t83 37t62.5 63.5t24.5 92.5v1055l402 74v-1146q0 -98 -45.5 -190.5t-134.5 -164.5t-220.5 -116t-303.5 -44q-142 0 -262 34.5t-207.5 102.5t-137 168.5t-49.5 231.5q0 116 45 205.5t140 147.5
q-88 51 -134.5 131t-46.5 176q0 53 10 108.5t35 107.5t66.5 97.5t103.5 79.5t147.5 54t198.5 20q101 0 250 -32l-56 -304q-19 6 -41.5 10t-43.5 6.5t-38 4t-26 1.5q-39 0 -76.5 -8.5t-66.5 -28t-47 -50.5t-18 -75q0 -38 16 -65t43 -45t62 -27t73 -12q18 -2 50 -2.5t66 -1
t65.5 -0.5h49.5l-67 -296l-145 -5q-109 -2 -161 -50.5t-52 -125.5z" />
    <glyph glyph-name="roruathai" unicode="&#xe23;" horiz-adv-x="1394" 
d="M696 1637q134 0 273.5 -47.5t271.5 -123.5l-151 -310q-63 33 -117 59t-101.5 44.5t-90.5 28.5t-85 10q-46 0 -81 -10.5t-59 -29.5t-36 -44t-12 -55q0 -49 45.5 -85t130.5 -65l155 -53q104 -36 187.5 -79.5t142 -100.5t90 -130.5t31.5 -167.5q0 -122 -43 -217.5
t-123.5 -161.5t-196.5 -101t-263 -35q-79 0 -160 14t-162 40.5t-161.5 63.5t-156.5 83l165 315q73 -44 137.5 -78t124 -57t116 -34.5t113.5 -11.5q97 0 151 42.5t54 114.5q0 23 -7.5 45.5t-29 44.5t-60 44t-99.5 46l-166 64q-82 31 -158.5 72.5t-136 95.5t-95 123t-35.5 155
q0 119 42.5 210.5t120.5 154t188.5 95t246.5 32.5z" />
    <glyph glyph-name="ruthai" unicode="&#xe24;" horiz-adv-x="1746" 
d="M1134 986q0 66 -5.5 122t-29.5 97t-72.5 64.5t-135.5 23.5q-78 0 -157 -18t-161 -50q16 -37 27.5 -87.5t11.5 -110.5v-529q0 -39 6 -76t28 -66t64 -47t114 -18l64 -277q-16 -5 -41.5 -10t-54 -9.5t-57 -7.5t-49.5 -3q-98 0 -184.5 25t-151 78.5t-102 135.5t-37.5 196v426
q0 39 -0.5 80.5t-3 78t-6 63.5t-9.5 36v-1l-138 203q90 68 193 127t213.5 102.5t226.5 68.5t232 25q221 0 366 -79t215 -232q17 -38 26.5 -126t9.5 -223v-1525l-402 -75v1618z" />
    <glyph glyph-name="lolingthai" unicode="&#xe25;" horiz-adv-x="1656" 
d="M1406 1355q23 -57 31.5 -142t8.5 -185q0 -90 -2 -181t-2 -196v-130.5v-105t0.5 -92t1 -91t1 -103t1.5 -127.5h-391q-4 61 -8 137q-3 65 -5 153.5t-2 194.5v237h-36q-243 0 -359 -62t-116 -171q0 -97 50.5 -142.5t141.5 -45.5q7 0 23 1t37.5 3.5t47 6.5t51.5 9l45 -283
q-23 -10 -55 -20t-66 -17.5t-67 -12.5t-57 -5q-110 0 -194.5 20t-147 54.5t-105.5 81t-69 98.5t-37.5 107.5t-11.5 108.5q0 130 63.5 236t181 181t286 116t378.5 41h29v11q0 54 -6.5 100.5t-28.5 81.5t-65.5 55t-116.5 20q-69 0 -149.5 -20t-158.5 -50t-147 -65t-114 -65
l-183 262q90 60 187.5 110t198 86.5t202 56.5t200.5 20q90 0 174 -16.5t154 -51t123 -86.5t83 -122v-1z" />
    <glyph glyph-name="luthai" unicode="&#xe26;" horiz-adv-x="1806" 
d="M318 881q0 46 -5.5 80t-14.5 60.5t-22 47t-28 39.5h1l-155 188q94 73 202 134.5t219 106.5t221 70t209 25q236 0 388 -77.5t219 -243.5q16 -39 25 -85t13 -93.5t5 -94.5t1 -87v-1507l-402 -76v1620q0 64 -7.5 120.5t-34 98.5t-77.5 66t-139 24q-76 0 -149 -18t-154 -49
q38 -55 62 -122t24 -133v-588q0 -103 -36.5 -178t-100.5 -124t-151 -72.5t-187 -23.5h-79l-90 319q86 0 134.5 12.5t72.5 35t30 54t6 69.5v402z" />
    <glyph glyph-name="wowaenthai" unicode="&#xe27;" horiz-adv-x="1388" 
d="M585 -32q-82 0 -151 17t-131 47.5t-119.5 72t-114.5 89.5l219 281q85 -86 156.5 -125.5t144.5 -39.5q66 0 113 28t78.5 74.5t50.5 106.5t28.5 124t12.5 127t3 115q0 94 -18.5 169.5t-55 128.5t-90 81.5t-122.5 28.5q-78 0 -164 -48t-180 -145l-225 266q70 74 138 124
t137.5 80.5t143 43.5t154.5 13q176 0 306.5 -59t216 -164.5t127.5 -250.5t42 -317q0 -96 -16.5 -198t-52.5 -198.5t-91.5 -182t-133 -150t-179 -102t-227.5 -37.5z" />
    <glyph glyph-name="sosalathai" unicode="&#xe28;" horiz-adv-x="1779" 
d="M611 0h-402v1107q0 98 45.5 191t135 165.5t221 116.5t303.5 44q31 0 70.5 -4t77.5 -10q39 -6 74.5 -7.5t67.5 3.5q43 6 91 21t94.5 40.5t88.5 62t73 84.5l263 -223q-29 -41 -69.5 -74.5t-86.5 -58.5t-93 -42.5t-88 -27.5q43 -60 67.5 -133t24.5 -148v-1107h-402v1062
q0 51 -20 93t-58 72t-93.5 46.5t-126.5 16.5q-42 0 -87.5 -11t-83.5 -35t-62.5 -62t-24.5 -92v-249q58 54 127 81t140 27q44 0 86 -9.5t100 -32.5l-93 -293q-22 6 -46 11q-20 5 -45 8t-49 4q-44 0 -80.5 -13t-64.5 -34t-47 -46t-28 -48v-496z" />
    <glyph glyph-name="sorusithai" unicode="&#xe29;" horiz-adv-x="1717" 
d="M1508 480q0 -98 -41 -191t-124.5 -165.5t-210.5 -116.5t-299 -44q-144 0 -259.5 37t-196 104.5t-124 163t-43.5 212.5v682q0 75 -15 140.5t-33 115.5q-21 58 -48 106l404 109q26 -53 47 -109q17 -48 32 -106t15 -112v-781q0 -52 15.5 -94.5t47.5 -73t82.5 -47.5
t120.5 -17q40 0 80.5 11.5t73 36t53 62t20.5 89.5v192h-33q-73 0 -132 14t-107 40.5t-86 63.5t-69 83l222 258q24 -37 53.5 -61.5t58.5 -38.5t53.5 -20t36.5 -6h4l-1 539l403 73v-589q42 11 77 25.5t67 31.5l136 -288q-43 -35 -115.5 -64t-164.5 -46v-219z" />
    <glyph glyph-name="sosuathai" unicode="&#xe2a;" horiz-adv-x="1667" 
d="M1458 984q-3 -87 -5.5 -161.5t-4 -142t-2 -131.5t-0.5 -130q0 -79 0.5 -153.5t1.5 -134.5q1 -70 3 -131h-392q-4 69 -8 151q-3 70 -5 163t-2 199v202h-36q-243 0 -359 -57t-116 -175q0 -40 13 -75.5t38 -61.5t60.5 -41.5t80.5 -15.5q18 0 60.5 4.5t94.5 15.5l49 -277
q-23 -10 -54 -20t-64.5 -17.5t-66.5 -12.5t-60 -5q-108 0 -192 21.5t-147 58.5t-106 86.5t-69.5 105t-38.5 114t-12 113.5q0 130 63.5 228.5t181.5 165.5t286 101t378 34h29v31q0 57 -5 108t-27 89.5t-65.5 61t-119.5 22.5q-64 0 -141.5 -20t-154.5 -51t-147.5 -68
t-120.5 -71l-188 258q92 60 190 109.5t198.5 85t201.5 54.5t199 19q35 0 78 -4.5t85 -11.5q41 -7 83 -7.5t82 10.5q69 18 133 64t121 127l271 -229q-32 -38 -72.5 -70t-84 -58t-87.5 -45.5t-83 -31.5q21 -30 32 -73t16 -94.5t6 -109t1 -115.5v-1z" />
    <glyph glyph-name="hohipthai" unicode="&#xe2b;" horiz-adv-x="1715" 
d="M1524 1625q8 -43 9 -72t1 -50q0 -70 -11.5 -131t-35 -116t-58 -104.5t-79.5 -95.5q35 -30 63.5 -72.5t49 -91t31.5 -101t11 -103.5v-688h-402v619q0 38 -3 76.5t-12 71t-25.5 56.5t-43.5 34q-56 -24 -112 -43t-108.5 -34t-100 -26t-86.5 -19v-735h-402v1159
q0 74 -14.5 140t-31.5 117q-20 59 -46 110l400 105q26 -54 47 -110q17 -48 32 -106t15 -112v-260q81 20 154.5 44.5t130.5 56.5h-1q66 39 107 83.5t63.5 95t30.5 106.5t8 118l419 78v0z" />
    <glyph glyph-name="lochulathai" unicode="&#xe2c;" horiz-adv-x="2153" 
d="M1940 544q0 -52 -5.5 -115.5t-23.5 -128t-52.5 -125.5t-93 -108.5t-144.5 -76t-206 -28.5q-63 0 -119 13.5t-104 38t-87.5 58t-69.5 73.5q-45 -50 -95 -85t-102 -57t-106 -32t-107 -10q-102 0 -180 36t-130.5 100t-79.5 153t-27 196v714q0 75 -15 140t-33 115
q-21 57 -48 106l394 110q28 -55 51 -111q20 -48 36 -105.5t16 -110.5v-901q0 -36 10.5 -63t26.5 -44.5t35.5 -26t37.5 -8.5q44 0 74 17t48 43t26 56.5t8 58.5v550l398 73v-575q0 -48 6.5 -88.5t21 -70.5t38 -47t58.5 -17q39 0 66 15t43.5 47.5t24 84t7.5 125.5l2 508
q0 55 -6.5 100t-29.5 77.5t-66.5 50.5t-116.5 18q-36 0 -104 -16t-159 -41l-118 288q117 45 232.5 71t234.5 21q58 -3 119 0t125 22.5t132 61t142 116.5l251 -237q-36 -37 -80.5 -69.5t-90.5 -58.5t-89 -44.5t-74 -27.5q35 -28 54.5 -63t29.5 -74t12 -80t2 -81v-531z" />
    <glyph glyph-name="oangthai" unicode="&#xe2d;" horiz-adv-x="1614" 
d="M560 565q0 -60 13 -113.5t41 -94t73 -64t108 -23.5q62 0 113 21t87 70.5t56 131t20 202.5v143q0 96 -23.5 179.5t-69.5 145.5t-115 97.5t-160 35.5q-47 0 -103 -9.5t-117.5 -34t-127.5 -66.5t-132 -106l-149 256q72 82 153.5 139t167 92t171.5 51t167 16q183 0 323 -61
t235.5 -175t144.5 -277.5t49 -368.5q0 -108 -16.5 -209t-52 -189t-91.5 -161t-134 -125t-179.5 -81t-229.5 -29q-138 0 -253.5 48t-199 134t-129.5 205t-46 260q0 51 8.5 104.5t30.5 103.5t59.5 94.5t94.5 78t136 54t185 23.5q31 1 59 -1.5t57 -8t61 -13.5l72 -18l-64 -273
q-38 16 -80.5 22.5t-83.5 4.5q-50 -3 -76 -19t-38 -43.5t-13.5 -65t-1.5 -83.5z" />
    <glyph glyph-name="honokhukthai" unicode="&#xe2e;" horiz-adv-x="1618" 
d="M560 565q0 -60 13 -113.5t41 -94t73 -64t108 -23.5q62 0 113 21t87 70.5t56 131t20 202.5v143q0 96 -23.5 179.5t-69.5 145.5t-115 97.5t-160 35.5q-47 0 -103 -9.5t-117.5 -34t-127.5 -66.5t-132 -106l-149 256q72 82 153.5 139t167 92t171.5 51t167 16q57 0 106 -6
t105 -18q35 -8 65.5 -6.5t48.5 3.5q48 6 90 20.5t83.5 40t83.5 63.5t89 90l265 -220q-43 -46 -89 -81.5t-92.5 -62t-93.5 -44.5t-91 -29q90 -115 136 -273.5t46 -358.5q0 -108 -16.5 -209t-52 -189t-91.5 -161t-134 -125t-179.5 -81t-229.5 -29q-138 0 -253.5 48t-199 134
t-129.5 205t-46 260q0 51 8.5 104.5t30.5 103.5t59.5 94.5t94.5 78t136 54t185 23.5q31 1 59 -1.5t57 -8t61 -13.5l72 -18l-64 -273q-38 16 -80.5 22.5t-83.5 4.5q-50 -3 -76 -19t-38 -43.5t-13.5 -65t-1.5 -83.5z" />
    <glyph glyph-name="paiyannoithai" unicode="&#xe2f;" horiz-adv-x="1819" 
d="M794 922q49 0 95 12t87.5 33t79 49t70.5 59l1 481l401 69l-1 -1620h-401v707q-42 -21 -89 -42t-96.5 -37t-100.5 -26t-99 -10q-149 0 -261 41t-187 108.5t-112.5 154t-37.5 176.5q0 133 49.5 234.5t132 170t190.5 103t226 34.5q34 0 67 -4.5t60.5 -11.5t47.5 -15t27 -14
l-70 -265q-81 8 -123 9.5t-54 1.5q-37 0 -65.5 -17t-47.5 -44t-29 -61t-10 -68q0 -41 17 -79t49 -66.5t78.5 -45.5t105.5 -17z" />
    <glyph glyph-name="saraathai" unicode="&#xe30;" horiz-adv-x="1202" 
d="M373 1496q4 -56 21.5 -90.5t42 -54t53 -26.5t55.5 -7t72 5t100.5 22t118.5 48.5t126 85.5l162 -213q-34 -35 -88.5 -79t-128 -85t-164 -74t-196.5 -45q-93 -10 -172.5 5.5t-143.5 57t-109.5 110t-69.5 165.5zM373 689q4 -56 21.5 -90.5t42 -54t53 -26.5t55.5 -7t72 5
t100.5 22t118.5 48.5t126 85.5l162 -213q-34 -35 -88.5 -79t-128 -85t-164 -74t-196.5 -45q-93 -10 -172.5 5.5t-143.5 57t-109.5 110t-69.5 165.5z" />
    <glyph glyph-name="maihanakatthai" unicode="&#xe31;" 
d="M-1082 2360q29 -54 66 -95q15 -18 34 -34.5t40 -30t44 -21.5t48 -8h857l-115 -282h-818q-45 1 -86 12t-76.5 29t-65.5 41t-55 47q-58 55 -103 127z" />
    <glyph glyph-name="saraaathai" unicode="&#xe32;" horiz-adv-x="1253" 
d="M-37 1364q61 51 131 98t147 83t159.5 57t169.5 21q111 0 198.5 -35.5t148 -98.5t92.5 -149.5t32 -188.5v-1151h-401v1038q0 42 -2.5 86.5t-15 80.5t-38 59t-71.5 23q-40 0 -85.5 -14.5t-92 -37.5t-92 -52.5t-84.5 -60.5z" />
    <glyph glyph-name="saraamthai" unicode="&#xe33;" horiz-adv-x="1259" 
d="M-28 1364q61 51 131 98t147 83t159.5 57t169.5 21q111 0 198.5 -35.5t148 -98.5t92.5 -149.5t32 -188.5v-1151h-401v1038q0 42 -2.5 86.5t-15 80.5t-38 59t-71.5 23q-40 0 -85.5 -14.5t-92 -37.5t-92 -52.5t-84.5 -60.5zM-758 2152q0 72 27 134t72.5 107t106 71t128.5 26
q70 0 131 -26t106 -71t70.5 -107t25.5 -134q0 -67 -25.5 -127t-70.5 -105t-106 -71t-131 -26q-68 0 -128.5 26t-106 71t-72.5 105t-27 127zM-541 2152q0 -23 9.5 -44t25.5 -37t37 -25.5t45 -9.5q25 0 46.5 9.5t38 25.5t26 37t9.5 44q0 25 -9.5 47t-26 38.5t-38 26t-46.5 9.5
q-24 0 -45 -9.5t-37 -26t-25.5 -38.5t-9.5 -47z" />
    <glyph glyph-name="saraithai" unicode="&#xe34;" 
d="M-210 1888h-1349l138 284l1211 -3v-281z" />
    <glyph glyph-name="saraiithai" unicode="&#xe35;" 
d="M-210 1888l-1360 -1l158 279h856l-1 206l347 68v-552z" />
    <glyph glyph-name="sarauethai" unicode="&#xe36;" 
d="M-800 2165q-2 7 -2.5 14.5t-1.5 14.5q-1 8 -1 15q0 64 25 117t67 91t97 59.5t114 21.5q64 0 121 -23.5t99.5 -65t67 -96.5t24.5 -118q0 -62 -24.5 -117.5t-67 -98.5t-99.5 -68t-121 -25h-1068l162 279h608zM-616 2195q0 -23 9 -43t25 -34.5t36.5 -22.5t43.5 -8
q50 0 82.5 30.5t32.5 77.5q0 21 -8.5 40.5t-24 34.5t-36.5 24t-46 9q-23 0 -43.5 -9t-36.5 -24t-25 -34.5t-9 -40.5z" />
    <glyph glyph-name="saraueethai" unicode="&#xe37;" 
d="M-701 2168h159v212l332 62v-552h-1358l160 278h375v212l332 62v-274z" />
    <glyph glyph-name="sarauthai" unicode="&#xe38;" 
d="M-583 -847v252q0 60 -25.5 97.5t-55.5 57.5q-35 24 -80 34l243 267q81 -27 145 -76q27 -21 53.5 -49t47 -63.5t33 -79.5t12.5 -97v-343h-373z" />
    <glyph glyph-name="sarauuthai" unicode="&#xe39;" 
d="M-767 -466q0 -26 9 -44t22 -29.5t28 -17t27 -5.5q7 0 23.5 1t33 11t29 33t12.5 67v218l373 69v-269q0 -45 -6 -92t-24 -91t-51 -83.5t-88 -68.5t-134 -46t-188 -17q-212 0 -325.5 81t-113.5 251q0 46 -19 66.5t-42 28.5q-26 8 -60 4l167 240q91 -5 163 -38
q31 -14 60.5 -35t52.5 -51.5t37 -71.5t14 -95v-16z" />
    <glyph glyph-name="phinthuthai" unicode="&#xe3a;" 
d="M-642 -382q0 45 17.5 84t46.5 68t66.5 45.5t78.5 16.5q48 0 88.5 -16.5t70 -45.5t46 -68t16.5 -84q0 -41 -16.5 -78t-46 -64.5t-70 -43.5t-88.5 -16q-41 0 -78.5 16t-66.5 43.5t-46.5 64.5t-17.5 78z" />
    <glyph glyph-name="PUCR2005" unicode="&#xe3e;" 
 />
    <glyph glyph-name="bahtthai" unicode="&#xe3f;" horiz-adv-x="2006" 
d="M817 -1h-608v2031h608v250l273 50v-301q92 -2 160 -7.5t121.5 -17.5t98 -31t89.5 -47q124 -79 185.5 -184t61.5 -242q0 -74 -19.5 -135.5t-56 -111.5t-90 -90t-122.5 -71q106 -39 177 -95t114 -122t61 -138.5t18 -144.5q0 -157 -51.5 -268t-152.5 -182.5t-250 -105.5
t-344 -36v-275h-273v274zM1442 620q0 46 -12 88t-34 75.5t-52.5 57.5t-67.5 35h1q-17 4 -34 7.5t-37 5t-45 2.5t-59 1h-12v-554h20q87 0 149.5 23t103 62t60 90t19.5 107zM619 338h198v554h-198v-554zM1376 1447q0 36 -10 71.5t-28 66t-44 53.5t-58 35q-25 10 -58.5 15
t-87.5 7v-465q81 1 133 18.5t85 49.5q30 29 49 70t19 79zM615 1230h202v465h-202v-465z" />
    <glyph glyph-name="saraethai" unicode="&#xe40;" horiz-adv-x="856" 
d="M202 1549l404 70v-1008q0 -87 2.5 -142t7.5 -89t12 -53t17 -34q10 -11 26 -19t35 -11.5t39.5 -2t38.5 9.5l69 -245q-57 -24 -114.5 -35.5t-131.5 -11.5q-101 0 -170 28t-114 73.5t-69.5 103t-35.5 116t-13 113t-2 94.5z" />
    <glyph glyph-name="saraaethai" unicode="&#xe41;" horiz-adv-x="1612" 
d="M202 1549l404 70v-1008q0 -87 2.5 -142t7.5 -89t12 -53t17 -34q10 -11 26 -19t35 -11.5t39.5 -2t38.5 9.5l69 -245q-57 -24 -114.5 -35.5t-131.5 -11.5q-101 0 -170 28t-114 73.5t-69.5 103t-35.5 116t-13 113t-2 94.5zM955 1549l404 70v-1008q0 -87 2.5 -142t7.5 -89
t12 -53t17 -34q10 -11 26 -19t35 -11.5t39.5 -2t38.5 9.5l69 -245q-57 -24 -114.5 -35.5t-131.5 -11.5q-101 0 -170 28t-114 73.5t-69.5 103t-35.5 116t-13 113t-2 94.5z" />
    <glyph glyph-name="saraothai" unicode="&#xe42;" horiz-adv-x="926" 
d="M246 1394q0 33 -0.5 70t-3.5 72.5t-9.5 66.5t-18.5 51v-1q-47 76 -106 140t-114.5 111t-98.5 75.5t-56 34.5q29 99 87.5 183t140 145.5t183 96t217.5 34.5q67 0 134 -10.5t133 -28.5t131 -42t128 -52l-152 -283q-74 29 -121.5 46.5t-84.5 26.5t-71 12t-82 3q-24 0 -54 -5
t-59.5 -12.5t-55 -16.5t-40.5 -18q25 -23 64.5 -55.5t84 -73.5t88 -89.5t78.5 -103.5v1q21 -31 33 -66.5t18 -83t7.5 -109t1.5 -143.5l-1 -759q0 -87 2.5 -142t7.5 -89t12 -53t17 -34q10 -11 26 -19t35 -11.5t39.5 -2t38.5 9.5l69 -245q-57 -24 -114.5 -35.5t-131.5 -11.5
q-101 0 -170 28t-114 73.5t-69.5 103t-35.5 116t-13 113t-2 94.5z" />
    <glyph glyph-name="saraaimaimuanthai" unicode="&#xe43;" horiz-adv-x="926" 
d="M245 1406q0 65 4.5 111t15.5 85t30.5 78t48.5 89q24 42 52.5 87t52.5 83q28 45 56 88q-27 57 -71.5 84.5t-110.5 26.5q-47 -1 -93.5 -21t-90 -54.5t-83 -80.5t-72.5 -100l-250 206q62 106 139 181t157 122t156 68.5t137 21.5q123 0 220.5 -35t168 -95.5t113 -141.5
t56.5 -172l-195 -330q-14 -26 -22 -55t-11.5 -59.5t-4.5 -62.5t-1 -62v-857q0 -87 2.5 -142t7.5 -89t12 -53t17 -34q10 -11 26 -19t35 -11.5t39.5 -2t38.5 9.5l69 -245q-57 -24 -114.5 -35.5t-131.5 -11.5q-101 0 -170 28t-114 73.5t-69.5 103t-35.5 116t-13 113t-2 94.5z
" />
    <glyph glyph-name="saraaimaimalaithai" unicode="&#xe44;" horiz-adv-x="954" 
d="M647 611q0 -87 2.5 -142t7.5 -89t12 -53t17 -34q10 -11 26 -19t35 -11.5t39.5 -2t38.5 9.5l69 -245q-57 -24 -114.5 -35.5t-131.5 -11.5q-101 0 -170 28t-114 73.5t-69.5 103t-35.5 116t-13 113t-2 94.5l-1 843q0 73 4.5 130.5t13.5 103.5t22 82.5t30 67.5q10 19 32 61.5
t58 99.5t87.5 126t120.5 143l-17 20q-68 -35 -136 -73t-126 -73t-101.5 -65t-62.5 -50q-35 34 -75.5 71.5t-89 74t-108 71.5t-133.5 65l196 274q37 -15 74 -35t72 -43t68.5 -48t63.5 -49q93 50 202.5 99t218.5 92l286 -271q-58 -83 -108 -167q-21 -36 -43 -75t-42 -78
t-37 -77t-27 -71q-17 -57 -25 -99t-11.5 -79.5t-3.5 -74.5v-83z" />
    <glyph glyph-name="lakkhangyaothai" unicode="&#xe45;" horiz-adv-x="1278" 
d="M-33 1364q61 51 131 98t147 83t159.5 57t169.5 21q111 0 198.5 -35.5t148 -98.5t92.5 -149.5t32 -188.5v-1708l-402 -75v1670q0 42 -2.5 86.5t-14.5 80.5t-37.5 59t-71.5 23q-40 0 -85.5 -14.5t-92 -37.5t-92 -52.5t-84.5 -60.5z" />
    <glyph glyph-name="maiyamokthai" unicode="&#xe46;" horiz-adv-x="1729" 
d="M1118 1104q0 60 -5 101t-21 63q-29 -26 -60.5 -54t-63.5 -56t-62.5 -55.5t-57.5 -51.5l-255 224q-20 -5 -34.5 -18.5t-24 -31.5t-14 -39t-4.5 -42v-114q0 -23 2.5 -55.5t16.5 -62.5t42.5 -51.5t81.5 -21.5q29 0 64.5 6t73.5 17l50 -288q-9 -5 -29 -12t-47 -14.5
t-58 -12.5t-62 -5q-119 0 -217.5 42.5t-169.5 116.5t-110 175.5t-39 220.5q0 102 33.5 193.5t102 164t173.5 121t248 65.5l175 -149q22 20 44.5 41.5t44.5 42.5l71 66q121 -20 216 -63t161 -107.5t101 -150.5t35 -192v-1012q0 -105 -9.5 -199.5t-38.5 -167.5
q-49 -116 -157 -207t-260 -158l-213 261q92 42 147 87t83.5 99.5t37 122t8.5 155.5v1006z" />
    <glyph glyph-name="maitaikhuthai" unicode="&#xe47;" 
d="M-993 1887q-105 0 -181.5 31t-127 83t-75 120t-24.5 143q0 102 40.5 177t107 124t153 73t178.5 24h473q11 0 28 3t39 12t48.5 25t56.5 41l161 -197q-64 -66 -125 -95.5t-133 -29.5h-510q-28 0 -64.5 -6t-69 -22t-55 -42.5t-22.5 -66.5q0 -50 18 -79t54 -50l208 122
l113 -80q24 -15 48 -29.5t46.5 -23.5t43 -11t38.5 8q7 4 12.5 14.5t4.5 24.5t-10.5 31t-30.5 35l211 90q25 -20 41 -44.5t25 -49.5t12.5 -49.5t4.5 -45.5q2 -38 -9.5 -75t-34.5 -71q-14 -20 -37 -41t-54.5 -38t-72 -28t-88.5 -11q-34 0 -62.5 6.5t-52 16t-43 20t-35.5 18.5
l-76 50z" />
    <glyph glyph-name="maiekthai" unicode="&#xe48;" 
d="M-210 2618h-324v406l324 55v-461z" />
    <glyph glyph-name="maithothai" unicode="&#xe49;" 
d="M-712 3202q21 -5 58 -21t73.5 -44t63 -68t26.5 -92q0 -19 -3.5 -40t-13.5 -42q-5 -11 -9.5 -17.5t-7.5 -10.5q-4 -4 -7 -6q55 0 119 16t126 43t117.5 62.5t94.5 74.5l195 -203q-157 -116 -320 -173.5t-344 -63.5q-56 0 -113.5 2t-128.5 15l-83 216q12 4 28 8.5t30 12.5
t23.5 21.5t9.5 35.5q0 23 -12.5 40t-30 29t-36 19t-31.5 10z" />
    <glyph glyph-name="maitrithai" unicode="&#xe4a;" 
d="M-621 3070q24 30 50.5 47t52.5 25.5t50 11.5t45 4q52 3 92 -11t67.5 -38.5t42 -58t14.5 -70.5q0 -31 -5 -60t-26 -56q17 6 43 18.5t53.5 29.5t52 38t38.5 43l118 -172q-31 -38 -86 -73.5t-126.5 -63.5t-154.5 -45.5t-170 -18.5l-38 191q27 6 42.5 27.5t13.5 43.5
q-4 31 -17.5 41.5t-38.5 10.5q-14 0 -30.5 -7t-33 -18t-32 -25t-27.5 -28q-12 28 -44 49t-69 21q-28 0 -46 -11.5t-18 -38.5q0 -30 31 -49t76 -28l-56 -179q-63 1 -120.5 19t-101.5 52t-70.5 82.5t-26.5 111.5q0 57 19 107t54.5 86.5t86.5 57.5t114 19q39 -1 68 -9t50.5 -20
t36.5 -27t26 -29z" />
    <glyph glyph-name="maichattawathai" unicode="&#xe4b;" 
d="M-735 3025h235v149l289 64v-213h239v-232h-239v-180h-289v180h-235v232z" />
    <glyph glyph-name="thanthakhatthai" unicode="&#xe4c;" 
d="M-160 3037q-75 -29 -116 -73t-41 -122q0 -65 23 -124t56 -124l-360 -56q-20 52 -31 91.5t-20 77.5q-13 58 -13 109q0 70 32 131.5t89 114t134.5 95t168.5 75.5z" />
    <glyph glyph-name="nikhahitthai" unicode="&#xe4d;" 
d="M-758 2152q0 72 27 134t72.5 107t106 71t128.5 26q70 0 131 -26t106 -71t70.5 -107t25.5 -134q0 -67 -25.5 -127t-70.5 -105t-106 -71t-131 -26q-68 0 -128.5 26t-106 71t-72.5 105t-27 127zM-541 2152q0 -23 9.5 -44t25.5 -37t37 -25.5t45 -9.5q25 0 46.5 9.5t38 25.5
t26 37t9.5 44q0 25 -9.5 47t-26 38.5t-38 26t-46.5 9.5q-24 0 -45 -9.5t-37 -26t-25.5 -38.5t-9.5 -47z" />
    <glyph glyph-name="yamakkanthai" unicode="&#xe4e;" 
d="M-223 2633q-54 -18 -86.5 -40t-49 -47.5t-21.5 -54.5t-5 -62q0 -24 3.5 -49t9 -49t11 -44.5t10.5 -34.5q-21 -2 -40 -6q-17 -3 -33.5 -7.5t-27.5 -11.5q-17 -11 -28 -30.5t-11 -62.5q0 -11 2 -25.5t4 -32.5l2 -51l-361 -34q-6 15 -10.5 33t-7.5 36.5t-4.5 35.5t-1.5 30
q0 87 26.5 157.5t83.5 121.5q2 76 27 145.5t77 130t131 110.5t189 87z" />
    <glyph glyph-name="fongmanthai" unicode="&#xe4f;" horiz-adv-x="1913" 
d="M102 799q0 117 30.5 226.5t86 204.5t133 173.5t171.5 134t202 86.5t225 31q118 0 227 -31t204 -86.5t173.5 -134t134.5 -173.5t86.5 -204.5t30.5 -226.5t-30.5 -225.5t-86.5 -203t-134.5 -172.5t-173.5 -134t-204 -86.5t-227 -30.5q-117 0 -225 30.5t-202 86.5
t-171.5 134t-133 172.5t-86 203t-30.5 225.5zM762 799q0 -37 14 -70t38.5 -57.5t57.5 -38.5t70 -14t70 14t57.5 38.5t38.5 57.5t14 70t-14 70t-38.5 57.5t-57.5 38.5t-70 14t-70 -14t-57.5 -38.5t-38.5 -57.5t-14 -70zM351 800q0 -123 46.5 -230.5t127 -188t188 -127
t230.5 -46.5t230.5 46.5t188 127t127 188t46.5 230.5t-46.5 230.5t-127 188t-188 127t-230.5 46.5t-230.5 -46.5t-188 -127t-127 -188t-46.5 -230.5zM532 800q0 85 32.5 160.5t88.5 131.5t131 88.5t161 32.5q85 0 160.5 -32.5t131.5 -88.5t88.5 -131.5t32.5 -160.5
q0 -86 -32.5 -161t-88.5 -131t-131.5 -88.5t-160.5 -32.5q-86 0 -161 32.5t-131 88.5t-88.5 131t-32.5 161z" />
    <glyph glyph-name="zerothai" unicode="&#xe50;" horiz-adv-x="1973" 
d="M986 -33q-179 0 -338.5 50t-279 146.5t-189 238t-69.5 323.5q0 118 33 220.5t91.5 186.5t140 149.5t178.5 110.5t206 68.5t223 23.5q121 0 233 -23.5t210 -69.5t178.5 -112.5t138.5 -152t89.5 -189.5t31.5 -224q0 -126 -34.5 -230.5t-95 -187t-143.5 -144.5
t-180.5 -102.5t-205.5 -61t-218 -20.5zM515 758q0 -86 20 -152.5t54 -117t80.5 -85t98.5 -56.5t108 -31.5t110 -9.5q49 0 103 8t106.5 26t100 47t83.5 70.5t57 96.5t21 126q0 124 -39.5 213t-106 146t-153 83.5t-180.5 26.5q-77 0 -159 -22.5t-149.5 -70t-111 -121.5
t-43.5 -177z" />
    <glyph glyph-name="onethai" unicode="&#xe51;" horiz-adv-x="2058" 
d="M1534 733q0 119 -36 199.5t-97 129t-141 69.5t-168 21q-51 0 -103.5 -7.5t-101 -22.5t-91 -36.5t-74 -49.5t-50 -62t-18.5 -73q0 -32 12.5 -58t34.5 -44.5t52.5 -28.5t67.5 -10l116 22l56 -251q-12 -5 -37.5 -12t-56 -14t-62 -12t-55.5 -5q-264 0 -399 110t-135 324
q0 121 64.5 223.5t177 177t263 116.5t323.5 42q239 0 405 -56t270 -154t150.5 -231t46.5 -286q0 -142 -37.5 -256t-105 -201.5t-162 -150t-207.5 -102.5t-242 -58.5t-266 -18.5q-86 0 -186.5 10.5t-209 39t-220 78t-218.5 127.5l167 277q87 -71 173.5 -112.5t168 -63
t156.5 -28t140 -6.5q141 0 258 29t200.5 85t130 139t46.5 191z" />
    <glyph glyph-name="twothai" unicode="&#xe52;" horiz-adv-x="2158" 
d="M2018 654q0 -123 -30 -222.5t-84 -177t-128.5 -134.5t-163.5 -93.5t-190 -54.5t-207 -18h-143q-141 0 -265 28t-228.5 79t-187 122.5t-139.5 159.5t-87.5 189.5t-30.5 212.5v484q0 66 -15 126.5t-32 106.5q-20 54 -46 100l392 101q25 -52 45 -105q17 -45 31 -97t14 -97
v-699q0 -77 42.5 -151t122 -131.5t192.5 -92.5t253 -35q133 0 226 32t151 82.5t84 112.5t26 123v366q0 36 -10 66t-26.5 53.5t-38.5 40.5t-46 26l-213 -191l-212 187q-17 -5 -31 -20t-25 -39t-17 -55.5t-6 -67.5v-107q0 -33 5 -63.5t22.5 -54t51 -38t90.5 -14.5l-52 -278
q-120 0 -204 25t-139.5 66t-86.5 94t-46.5 109.5t-19 112.5t-3.5 103q0 118 25.5 219t87.5 177.5t166 125t260 60.5l129 -139l122 132q143 0 257 -38.5t193.5 -105.5t122 -157.5t42.5 -195.5v-350z" />
    <glyph glyph-name="threethai" unicode="&#xe53;" horiz-adv-x="2026" 
d="M727 1137q-30 -7 -62.5 -31t-60 -70.5t-45 -117.5t-17.5 -173v-49q0 -33 0.5 -75t5 -85.5t13.5 -85t26 -74t43 -52.5t64 -20q9 0 21.5 -1t31 0.5t44 6.5t60.5 16l61 -327q-28 -6 -63 -11t-71.5 -9t-72 -6.5t-65.5 -2.5q-106 0 -184.5 28.5t-134 79t-90.5 119.5t-55.5 151
t-28 173.5t-7.5 186.5q0 186 47 325t133.5 235t208 150t271.5 71l218 -168q59 41 119.5 84t117.5 83q155 -12 273 -64.5t197.5 -134t120 -187t40.5 -223.5v-308q0 -92 -18 -181.5t-57 -169.5t-101.5 -147t-150.5 -113l-218 281q33 34 60 69.5t46.5 75t30 84t10.5 97.5v312
q0 45 -13.5 88t-36 79t-51.5 60.5t-59 31.5q-36 -26 -76 -54.5t-80.5 -57.5t-80 -57t-75.5 -54z" />
    <glyph glyph-name="fourthai" unicode="&#xe54;" horiz-adv-x="2028" 
d="M538 701q0 -77 21 -144t73 -117t140 -78.5t222 -28.5q-25 18 -48.5 45.5t-41.5 60t-28.5 68t-10.5 70.5q0 63 21 122.5t76 108t150.5 83.5t244.5 49l82 -296q-97 -13 -136.5 -44t-39.5 -82q0 -45 12.5 -75.5t35 -51.5t53.5 -34.5t68 -23.5h446l-90 -334h-894
q-141 0 -251.5 30.5t-194.5 82t-142.5 120t-95.5 145t-53.5 156.5t-16.5 155v98q0 162 59 287t167 210.5t260 129.5t338 44h622q66 0 126.5 15t108.5 34q55 22 105 50l105 -361q-53 -22 -107 -40q-46 -15 -100 -27.5t-102 -12.5h-783q-94 0 -168.5 -22t-126 -61t-79 -91.5
t-27.5 -113.5v-126v0z" />
    <glyph glyph-name="fivethai" unicode="&#xe55;" horiz-adv-x="2032" 
d="M1073 1487q0 -27 10.5 -51t28 -41.5t41.5 -28t51 -10.5t51 10.5t41.5 28t28 41.5t10.5 51t-10.5 51t-28 41.5t-41.5 28t-51 10.5t-51 -10.5t-41.5 -28t-28 -41.5t-10.5 -51zM817 1493q0 79 30.5 148.5t83 121t123.5 81.5t151 30t151 -30t123.5 -81.5t83 -121t30.5 -148.5
q0 -9 -0.5 -18t-1.5 -17q64 1 123.5 16t106.5 34q55 21 103 49l106 -343q-52 -26 -106 -45q-46 -17 -100.5 -31t-102.5 -14h-782q-93 0 -166.5 -28.5t-124.5 -74.5t-78.5 -104.5t-27.5 -118.5v-97q0 -77 25 -144t74 -116.5t121.5 -78.5t168.5 -29h70q-27 19 -50.5 46.5
t-40.5 59.5t-27 66t-10 66q0 56 21 113.5t76 106t150.5 85t244.5 50.5l82 -266q-100 -16 -143.5 -49.5t-47.5 -92.5q-2 -30 9 -59.5t34 -54.5t57.5 -44t78.5 -27h443l-90 -334h-894q-142 0 -253.5 30.5t-195 82t-142 120t-94.5 145t-52.5 156.5t-16.5 155v65q0 146 48 266
t136.5 209t215 145t282.5 74q-2 12 -3.5 23t-1.5 23z" />
    <glyph glyph-name="sixthai" unicode="&#xe56;" horiz-adv-x="2079" 
d="M557 1349q133 57 285.5 95.5t328.5 38.5q380 0 579 -198t199 -591q0 -167 -66.5 -301.5t-182.5 -229.5t-273 -146.5t-338 -51.5q-102 0 -198.5 11t-181.5 35.5t-155.5 62.5t-121.5 92t-79 124t-28 159q0 106 45.5 186.5t126.5 134.5t193 82t245 30l82 -292h-150
q-41 0 -71 -9.5t-49.5 -25.5t-29 -38t-9.5 -46q0 -42 18 -72t47.5 -50.5t68 -33.5t80.5 -20t84 -9.5t79 -2.5q84 0 169.5 26t155 79.5t113.5 134.5t44 192q0 102 -29 184t-80 140t-121 89t-152 31q-121 0 -227 -18t-201.5 -52t-181.5 -82.5t-167 -108.5l-333 542l315 193z
" />
    <glyph glyph-name="seventhai" unicode="&#xe57;" horiz-adv-x="2242" 
d="M1099 183q43 42 71.5 74.5t45 68t23.5 80t7 110.5v238q0 88 -10 153t-28 110t-42.5 71.5t-54.5 36.5l-229 -225l-234 230q-35 -16 -61 -47t-45 -70.5t-31 -84t-19 -89t-10 -85.5t-3 -73q0 -63 6 -122.5t23 -111t48.5 -92.5t81.5 -66q47 -23 89.5 -23.5t82.5 3.5l45 -261
q-26 -8 -68 -13t-89 -7t-94 0t-83 9q-79 14 -139.5 49t-105.5 85.5t-76 114t-49.5 135t-27 149t-8.5 155.5q0 164 34 306t108 248t190.5 169t282.5 70l147 -160l154 156q181 -17 298 -79t184 -157.5t93 -219t26 -264.5q0 -30 -1 -53t-2 -44.5t-2 -42.5t-1 -46
q0 -43 -8.5 -77.5t-19.5 -60.5q-12 -30 -28 -53q63 28 104.5 77.5t66 103.5t34.5 103t10 77v560q0 45 3 100.5t7 105.5q4 58 11 116l352 -96q-10 -51 -17 -109q-6 -50 -11 -114.5t-5 -133.5v-401q0 -147 -58 -275t-163 -231.5t-252.5 -178t-326.5 -114.5z" />
    <glyph glyph-name="eightthai" unicode="&#xe58;" horiz-adv-x="2068" 
d="M536 587q0 -48 12.5 -95t33.5 -84.5t49 -62.5t59 -30l314 251l288 -253q48 1 86 10t64.5 31t41 59t15.5 95q1 42 -10.5 78.5t-41.5 62.5t-82.5 41t-134.5 15l122 276q162 -11 262 -50t155.5 -100.5t74.5 -140.5t19 -169q0 -146 -41.5 -249.5t-121 -169.5t-196.5 -96.5
t-268 -30.5l-232 232l-262 -232q-149 9 -262 61.5t-189 135t-114.5 189.5t-38.5 226v173q0 162 59 292t167 221t261 140t341 49h651q64 0 124.5 15t108.5 34q55 22 104 50l106 -352q-52 -26 -106 -45q-46 -17 -100 -30.5t-102 -13.5h-815q-93 0 -167.5 -27t-126 -71.5
t-79.5 -102t-28 -118.5v-214z" />
    <glyph glyph-name="ninethai" unicode="&#xe59;" horiz-adv-x="2036" 
d="M1878 144l-323 -183l-550 950q-24 46 -51.5 84t-58 66t-63.5 43.5t-69 15.5q-42 0 -83.5 -19t-73.5 -65.5t-52 -125t-20 -197.5q0 -35 1 -77t6.5 -86t16.5 -85t31 -73t50.5 -51.5t74.5 -19.5q16 0 56 9.5t111 32.5l50 -344q-29 -6 -64.5 -12t-73.5 -10.5t-77.5 -7
t-75.5 -2.5q-101 0 -177 29t-131.5 79.5t-92.5 119.5t-59 148.5t-31 166.5t-9 175q0 389 155 575.5t472 186.5q97 0 193.5 -32.5t181.5 -101.5q22 40 54 66t70 41t80 21t85 6h143q62 0 123 15t109 34q56 21 108 49l95 -323q-50 -29 -101 -52q-45 -20 -97 -35.5t-102 -15.5
h-217q-23 0 -47 -5t-40.5 -19t-22.5 -41t8 -70z" />
    <glyph glyph-name="angkhankhuthai" unicode="&#xe5a;" horiz-adv-x="2387" 
d="M1733 1550l402 74v-1624h-402v1550zM742 939q48 0 92.5 12t86 33t78.5 48.5t70 58.5v460l402 74v-1625h-402v689q-42 -21 -89 -39t-96.5 -30.5t-100 -19.5t-98.5 -7q-149 0 -261 41t-187 108.5t-112.5 154t-37.5 176.5q0 133 49.5 234.5t132 170t190.5 103t226 34.5
q24 0 53.5 -4t57.5 -10t52 -14t39 -17l-70 -303q-80 10 -118 12t-51 2q-78 0 -119 -42.5t-41 -112.5q0 -41 17 -75.5t49.5 -59t80 -38.5t107.5 -14z" />
    <glyph glyph-name="khomutthai" unicode="&#xe5b;" horiz-adv-x="3723" 
d="M2929 724q-19 -26 -42.5 -61.5t-49.5 -82t-52.5 -104t-51.5 -128.5q-32 54 -63.5 113.5t-61.5 116t-58 105.5t-52 81q-51 -72 -115.5 -210.5t-142.5 -329.5q-32 82 -62 157t-58 139.5t-54 116.5t-50 88q-13 -102 -45.5 -199.5t-87.5 -184t-133.5 -159.5t-181.5 -126
t-232.5 -82.5t-286.5 -29.5q-144 0 -265 31t-218.5 86t-171 131.5t-123 168t-74.5 194.5t-25 211q0 99 22.5 194t66.5 179.5t109 155.5t150 122.5t188.5 80t225.5 28.5q179 0 302 -47.5t198.5 -128.5t109 -188.5t33.5 -227.5q0 -110 -37.5 -197t-101.5 -148.5t-149.5 -94
t-182.5 -32.5q-26 0 -57.5 1.5t-64.5 5.5t-65 10t-60 15l70 272q25 -4 49 -7q20 -3 41.5 -5t37.5 -2q37 0 72.5 13t63 37t44 58.5t16.5 76.5q0 59 -21 105.5t-58.5 78.5t-89.5 49t-113 17q-89 0 -165 -31.5t-132 -89.5t-88 -139.5t-32 -180.5q0 -96 36.5 -178.5t103 -143
t160 -95t207.5 -34.5q135 0 237 29t177 79.5t124.5 119t79.5 147.5t42.5 165.5t12.5 172.5q0 27 -0.5 56t-5.5 67l226 124q33 -28 72 -77t78.5 -107t76.5 -120t65 -116q20 41 48 94t61 109.5t70 110.5t74 98q34 -44 68.5 -92t66 -94.5t59 -88.5t48.5 -75l18 34
q29 32 58 61.5t46 54.5h434q29 0 67 20.5t73 46.5q40 29 83 67l114 -349q-50 -29 -101 -52q-44 -20 -94 -36t-93 -16z" />
    <glyph glyph-name="ZWSP" unicode="&#x200b;" 
 />
    <glyph glyph-name="endash" unicode="&#x2013;" horiz-adv-x="1081" 
d="M1081 950v-298h-1081v298h1081z" />
    <glyph glyph-name="emdash" unicode="&#x2014;" horiz-adv-x="2879" 
d="M2521 950v-298h-2162v298h2162z" />
    <glyph glyph-name="quoteleft" unicode="&#x2018;" horiz-adv-x="795" 
d="M680 1929q-48 -11 -86.5 -28t-65.5 -38.5t-42 -46.5t-15 -51q0 -15 3.5 -27t12 -23t22.5 -21.5t36 -22.5q62 -34 88 -83.5t26 -121.5q0 -52 -20 -97.5t-54.5 -79t-80.5 -53t-98 -19.5q-63 0 -116.5 26t-92 72.5t-60.5 110.5t-22 139q0 95 29.5 181t83 155.5t129 119
t167.5 72.5z" />
    <glyph glyph-name="quoteright" unicode="&#x2019;" horiz-adv-x="778" 
d="M94 1360q46 12 84.5 30t66 40t43 47t15.5 51q0 14 -3.5 25t-12 22t-22.5 22t-36 25q-62 34 -88 84t-26 121q0 52 19.5 97.5t53.5 79.5t80.5 53.5t100.5 19.5q63 0 116 -26.5t92 -73.5t60.5 -111.5t21.5 -141.5q0 -93 -30 -178t-84 -154t-129 -119t-166 -73z" />
    <glyph glyph-name="quotedblleft" unicode="&#x201c;" horiz-adv-x="1430" 
d="M1339 1933q-48 -11 -86.5 -28t-65.5 -39t-42 -47.5t-15 -53.5q0 -14 3 -24.5t11 -20.5t22.5 -20.5t37.5 -24.5q59 -37 87 -86.5t28 -118.5q0 -54 -20 -100t-54.5 -80t-81 -53.5t-98.5 -19.5q-65 0 -118.5 26t-91.5 73t-59.5 111.5t-21.5 141.5q0 95 30 181t84 155.5
t129.5 119t166.5 72.5zM680 1933q-48 -11 -86.5 -28t-65.5 -39t-42 -47.5t-15 -53.5q0 -14 3.5 -25t12 -21.5t22.5 -21t36 -22.5q62 -37 88 -86.5t26 -118.5q0 -54 -20 -100t-55 -80t-82 -53.5t-101 -19.5q-61 0 -113.5 26t-90.5 73t-60 111.5t-22 141.5q0 95 29.5 181
t83 155.5t129 119t167.5 72.5z" />
    <glyph glyph-name="quotedblright" unicode="&#x201d;" horiz-adv-x="1430" 
d="M102 1360q48 12 86.5 30t65.5 40t42 47t15 51q0 14 -3.5 25t-11.5 22t-22.5 22t-35.5 25q-115 66 -115 205q0 52 19.5 97.5t53.5 79.5t80.5 53.5t100.5 19.5q63 0 116.5 -26.5t92 -73.5t60.5 -111.5t22 -141.5q0 -93 -29.5 -178t-83.5 -154t-129.5 -119t-167.5 -73z
M762 1360q48 12 86.5 30t65.5 40t42 47t15 51q0 14 -3.5 25t-12 22t-23 22t-35.5 25q-115 66 -115 205q0 52 19.5 97.5t54 79.5t80.5 53.5t100 19.5q63 0 116.5 -26.5t92 -73.5t60.5 -111.5t22 -141.5q0 -93 -29.5 -178t-83 -154t-129 -119t-167.5 -73z" />
    <glyph glyph-name="bullet" unicode="&#x2022;" horiz-adv-x="1458" 
d="M749 1341q82 0 157 -21t140.5 -60t119 -93t91.5 -120t59 -141.5t21 -157.5q0 -121 -46 -228t-125.5 -187.5t-186.5 -127t-230 -46.5t-230.5 46.5t-187 127t-125.5 187.5t-46 228q0 82 21 157.5t59 141.5t91.5 120t119 93t141 60t157.5 21z" />
    <glyph glyph-name="Euro" unicode="&#x20ac;" horiz-adv-x="1749" 
d="M1418 1634q-78 59 -157.5 87t-166.5 28q-105 0 -196.5 -46.5t-147.5 -129.5q-50 -74 -78 -178h692v-297h-729v-45v-69t2 -63h727v-297h-689q18 -67 46 -116q62 -112 159 -170.5t230 -58.5q89 0 174.5 30.5t174.5 104.5l188 -258q-120 -98 -256.5 -145.5t-308.5 -47.5
q-209 0 -373.5 70.5t-290.5 212.5q-141 158 -202 378h-294v297h251q-1 12 -1 24.5v25.5q0 32 1 64t3 63h-254v297h305q34 113 85 207q58 110 141 197.5t183.5 148t215.5 93t238 32.5q75 0 149 -11t140.5 -32t123.5 -50.5t99 -66.5z" />
    <glyph glyph-name="trademark" unicode="&#x2122;" horiz-adv-x="3015" 
d="M147 1786v282h1012v-282h-348v-922h-315v922h-349zM1839 2068l287 -782l287 782h421v-1204h-315v783h-4l-287 -783h-205l-286 783h-4v-783h-316v1204h422z" />
    <glyph glyph-name="uni25CC" unicode="&#x25cc;" horiz-adv-x="2142" 
d="M827 573l-151 -49l53 152q41 -62 98 -103zM995 1319l74 143l70 -139q-33 4 -66 4q-37 0 -78 -8zM1135 500l-66 -135l-65 135q32 -8 69 -8q33 0 62 8zM1487 979l131 -70l-131 -61q4 29 4 61q0 37 -4 70zM664 844l-144 74l144 69q-5 -37 -5 -78q0 -32 5 -65zM737 1159
l-41 148l144 -50q-62 -40 -103 -98zM1405 655l41 -131l-131 41q53 37 90 90zM1311 1257l155 50l-53 -152q-41 57 -102 102z" />
    <glyph glyph-name="thothannobasethai" unicode="&#xf700;" horiz-adv-x="1579" 
d="M1368 521q0 -54 -3.5 -115.5t-18.5 -123t-46.5 -117.5t-88 -99.5t-142.5 -69t-209 -25.5q-26 0 -57.5 4t-63.5 10.5t-61.5 15t-51.5 18.5l-188 689l1 -2q-16 48 -35 85t-36 63q-19 30 -39 53l290 215q34 -22 67 -60q28 -32 57 -85t49 -131l140 -576q18 17 26 58t8 86v663
q0 55 -5.5 101t-27 79t-63 51.5t-113.5 18.5q-74 0 -156.5 -18.5t-162 -46t-149 -60.5t-116.5 -61l-171 255q92 60 190.5 109.5t198.5 85t200 54.5t195 19q41 0 85 -4.5t87 -13.5q28 -6 50 -11.5t42.5 -7.5t42 -0.5t49.5 10.5q59 19 120 60.5t131 113.5l251 -202
q-35 -41 -73.5 -73.5t-79.5 -57.5t-83.5 -44.5t-85.5 -34.5q32 -51 39 -132t7 -179v-567z" />
    <glyph glyph-name="yoyingnobasethai" unicode="&#xf70f;" horiz-adv-x="2467" 
d="M1646 -31q-129 2 -230.5 36.5t-172 97t-108 151.5t-37.5 200v547q0 67 -4 124t-25.5 98t-67.5 64.5t-129 23.5q-69 0 -138.5 -19t-147.5 -54q14 -35 25.5 -84t11.5 -112v-596q0 -41 8.5 -73t33 -54.5t68.5 -34.5t115 -12l49 -273q-18 -4 -43.5 -9.5t-53 -10t-54 -7.5
t-46.5 -3q-100 0 -186.5 28.5t-150.5 84t-101 137t-37 186.5v496q0 94 -2.5 143t-15.5 70v-1l-139 203q94 73 198.5 132.5t212.5 102t216 65.5t210 23q115 0 203 -19t155.5 -58.5t116.5 -100t85 -142.5q11 -33 18 -79.5t10.5 -95t4.5 -92t1 -69.5v-488q0 -48 8.5 -91.5
t29.5 -75.5t55.5 -51t86.5 -19t86 19t54 51t28 75.5t8 91.5v1082l398 65v-1188q0 -86 -24 -155.5t-66.5 -123.5t-100 -93t-125 -64t-141.5 -37t-149 -12h-1z" />
    <glyph glyph-name="saraulowthai" unicode="&#xf718;" 
d="M-584 -1336v239q0 60 -25.5 97.5t-55.5 57.5q-35 24 -80 34l243 267q81 -27 145 -76q27 -21 53.5 -49t47 -63.5t33 -79.5t12.5 -97v-330h-373z" />
    <glyph glyph-name="sarauulowthai" unicode="&#xf719;" 
d="M-767 -996q0 -26 4 -53t14 -49.5t26.5 -37t41.5 -14.5q56 0 77 40.5t21 129.5v230l373 57v-295q0 -45 -6 -96.5t-24 -102t-51 -97t-88 -82t-134 -57t-188 -21.5q-106 0 -187.5 24.5t-137 70t-84.5 109.5t-30 143v42q0 21 -7 37t-18 27.5t-25.5 18.5t-29.5 12
q-35 11 -80 9l182 258q102 9 181 -16q34 -11 65.5 -30t55.5 -50t38 -75t11 -105v-27z" />
    <glyph glyph-name="phinthulowthai" unicode="&#xf71a;" 
d="M-642 -913q0 45 17.5 84t46.5 68t66.5 45.5t78.5 16.5q48 0 88.5 -16.5t70 -45.5t46 -68t16.5 -84q0 -41 -16.5 -78t-46 -64.5t-70 -43.5t-88.5 -16q-41 0 -78.5 16t-66.5 43.5t-46.5 64.5t-17.5 78z" />
    <glyph glyph-name="lochula.short" unicode="&#xf71d;" horiz-adv-x="2153" 
d="M1940 544q0 -52 -5.5 -115.5t-23.5 -128t-52.5 -125.5t-93 -108.5t-144.5 -76t-206 -28.5q-63 0 -119 13.5t-104 38t-87.5 58t-69.5 73.5q-45 -50 -95 -85t-102 -57t-106 -32t-107 -10q-102 0 -180 36t-130.5 100t-79.5 153t-27 196v714q0 75 -15 140t-33 115
q-21 57 -48 106l394 110q28 -55 51 -111q20 -48 36 -105.5t16 -110.5v-901q0 -36 10.5 -63t26.5 -44.5t35.5 -26t37.5 -8.5q44 0 74 17t48 43t26 56.5t8 58.5v550l398 73v-575q0 -48 6.5 -88.5t21 -70.5t38 -47t58.5 -17q39 0 66 15t43.5 47.5t24 84t7.5 125.5l2 508
q0 55 -6.5 100t-29.5 77.5t-66.5 50.5t-116.5 18q-36 0 -104 -16t-159 -41l-118 288q117 45 232.5 69.5t234.5 22.5q61 -1 122 3t125 23.5t131.5 61t141.5 116.5l249 -241q-36 -37 -80.5 -69.5t-90.5 -58.5t-89 -44.5t-74 -27.5q35 -28 54.5 -63t29.5 -74t12 -80t2 -81v-531
z" />
    <glyph glyph-name="rulakkhangyao" unicode="&#xf881;" horiz-adv-x="2858" 
d="M1126 985q0 64 -5 120.5t-28 98.5t-69.5 66t-130.5 24q-78 0 -159.5 -20.5t-159.5 -52.5q16 -35 26 -82t10 -118v-533q0 -54 6.5 -92.5t29 -63t65 -36.5t114.5 -12l65 -277q-15 -4 -40.5 -10t-54 -11.5t-57 -9.5t-50.5 -4q-97 0 -184.5 26.5t-154 80t-106 133.5
t-39.5 188q0 54 0.5 107t1.5 112q0 34 0.5 64t1 61t1 67.5t0.5 84.5q0 89 -3 137.5t-14 73.5l-136 190q91 73 197 134t216.5 105.5t219.5 69t208 24.5q119 0 213.5 -18t167 -56.5t124.5 -98.5t86 -145v1q6 -15 13 -46t13 -75.5t10 -100.5t4 -122v-1528l-402 -70v1614z
M1576 1364q61 51 131 98t147 83t159.5 57t169.5 21q111 0 198.5 -35.5t148 -98.5t92.5 -149.5t32 -188.5v-1708l-402 -75v1670q0 42 -2.5 86.5t-14.5 80.5t-37.5 59t-71.5 23q-40 0 -85.5 -14.5t-92 -37.5t-92 -52.5t-84.5 -60.5z" />
    <glyph glyph-name="lulakkhangyao" unicode="&#xf882;" horiz-adv-x="2933" 
d="M1645 1364q61 51 131 98t147 83t159.5 57t169.5 21q111 0 198.5 -35.5t148 -98.5t92.5 -149.5t32 -188.5v-1708l-402 -75v1670q0 42 -2.5 86.5t-14.5 80.5t-37.5 59t-71.5 23q-40 0 -85.5 -14.5t-92 -37.5t-92 -52.5t-84.5 -60.5zM318 881q0 46 -5.5 80t-14.5 60.5
t-22 47t-28 39.5h1l-155 188q94 73 202 134.5t219 106.5t221 70t209 25q235 0 388.5 -78t218.5 -244v1q16 -39 25 -85t13.5 -93.5t5 -94.5t0.5 -87v-1507l-402 -76v1620q0 64 -7.5 120.5t-34 98.5t-77.5 66t-139 24q-76 0 -149 -18t-154 -49q38 -55 62 -122t24 -133v-588
q0 -103 -36.5 -178t-100.5 -124t-151 -72.5t-187 -23.5h-79l-90 319q86 0 134.5 12.5t72.5 35t30 54t6 69.5v402z" />
    <glyph glyph-name="yamakkanleftthai" 
d="M-749 2633q-54 -18 -86.5 -40t-49 -47.5t-21.5 -54.5t-5 -62q0 -24 3.5 -49t9 -49t11 -44.5t10.5 -34.5q-21 -2 -40 -6q-17 -3 -33.5 -7.5t-27.5 -11.5q-17 -11 -28 -30.5t-11 -62.5q0 -11 2 -25.5t4 -32.5l2 -51l-361 -34q-6 15 -10.5 33t-7.5 36.5t-4.5 35.5t-1.5 30
q0 87 26.5 157.5t83.5 121.5q2 76 27 145.5t77 130t131 110.5t189 87z" />
    <glyph glyph-name="saraamleft" horiz-adv-x="1262" 
d="M-1458 2152q0 72 27 134t72.5 107t106 71t128.5 26q70 0 131 -26t106 -71t70.5 -107t25.5 -134q0 -67 -25.5 -127t-70.5 -105t-106 -71t-131 -26q-68 0 -128.5 26t-106 71t-72.5 105t-27 127zM-1241 2152q0 -23 9.5 -44t25.5 -37t37 -25.5t45 -9.5q25 0 46.5 9.5t38 25.5
t26 37t9.5 44q0 25 -9.5 47t-26 38.5t-38 26t-46.5 9.5q-24 0 -45 -9.5t-37 -26t-25.5 -38.5t-9.5 -47zM-28 1364q61 51 131 98t147 83t159.5 57t169.5 21q111 0 198.5 -35.5t148 -98.5t92.5 -149.5t32 -188.5v-1151h-401v1038q0 42 -2.5 86.5t-15 80.5t-38 59t-71.5 23
q-40 0 -85.5 -14.5t-92 -37.5t-92 -52.5t-84.5 -60.5z" />
    <glyph glyph-name="uni0E33.alt1" horiz-adv-x="1262" 
d="M-1458 2152q0 72 27 134t72.5 107t106 71t128.5 26q70 0 131 -26t106 -71t70.5 -107t25.5 -134q0 -67 -25.5 -127t-70.5 -105t-106 -71t-131 -26q-68 0 -128.5 26t-106 71t-72.5 105t-27 127zM-1241 2152q0 -23 9.5 -44t25.5 -37t37 -25.5t45 -9.5q25 0 46.5 9.5t38 25.5
t26 37t9.5 44q0 25 -9.5 47t-26 38.5t-38 26t-46.5 9.5q-24 0 -45 -9.5t-37 -26t-25.5 -38.5t-9.5 -47zM-28 1364q61 51 131 98t147 83t159.5 57t169.5 21q111 0 198.5 -35.5t148 -98.5t92.5 -149.5t32 -188.5v-1151h-401v1038q0 42 -2.5 86.5t-15 80.5t-38 59t-71.5 23
q-40 0 -85.5 -14.5t-92 -37.5t-92 -52.5t-84.5 -60.5z" />
    <glyph glyph-name="zero.alt1" horiz-adv-x="1676" 
d="M811 1635q160 0 287.5 -56.5t216.5 -161.5t136.5 -254.5t47.5 -335.5q0 -199 -50.5 -358.5t-142 -272t-218.5 -173t-281 -60.5q-160 0 -288 60.5t-218 172t-138 269.5t-48 353q0 192 50.5 343.5t142 256.5t220 161t283.5 56zM1073 814q0 155 -20.5 258t-55.5 164.5
t-83 86.5t-103 25q-75 0 -126 -40t-82 -110t-44.5 -165.5t-13.5 -205.5q0 -162 19.5 -272t54.5 -178t83 -97.5t105 -29.5q74 0 124.5 46.5t82 124.5t45.5 180t14 213z" />
    <glyph glyph-name="one.alt1" horiz-adv-x="1365" 
d="M950 1628v-1309h326l-76 -319h-950v319h323v858q-80 -49 -166 -91.5t-182 -76.5l-102 209l565 410h262z" />
    <glyph glyph-name="two.alt1" horiz-adv-x="1676" 
d="M1372 0h-1216v356q38 20 65.5 32.5t58 27t70.5 35t105 57.5q152 86 250.5 160t155.5 138.5t79.5 121t22.5 107.5q0 47 -17.5 92t-49 79.5t-74 55.5t-93.5 21q-48 0 -93.5 -10.5t-93 -32.5t-99 -57t-111.5 -84l-234 241q78 71 160.5 124.5t172.5 89.5t189 54.5t211 18.5
q131 0 236.5 -43t179.5 -116t114 -169.5t40 -202.5q0 -81 -20.5 -153.5t-57 -136t-87 -117.5t-110.5 -99q-38 -29 -89 -60t-105 -62t-107 -60.5t-96 -55.5q-12 -9 -34 -18.5t-44 -22.5q25 3 59 6t72 5.5t77.5 4t74.5 1.5h524z" />
    <glyph glyph-name="three.alt1" horiz-adv-x="1676" 
d="M332 797q52 -6 100 -7t100 -1q82 0 142.5 21.5t101 60t60.5 91t20 114.5q0 48 -15 87.5t-45.5 68.5t-78 45t-111.5 16q-72 0 -136 -15t-118.5 -39t-99 -53t-76.5 -57l-205 250q59 46 129 87.5t142 72.5q102 40 207 63t210 23q137 0 252.5 -38.5t199.5 -106.5t131.5 -161
t47.5 -202q0 -93 -20 -171.5t-58.5 -141t-94 -107t-126.5 -68.5q81 -28 145.5 -76t109.5 -114t69 -148t24 -177q0 -152 -76 -278t-212.5 -216t-325 -140t-414.5 -50h-62.5t-54 1.5t-57 4t-71.5 7.5l-91 264q50 -11 100.5 -15.5t121.5 -4.5q152 0 279.5 28.5t219.5 82.5
t143.5 132t51.5 176q0 37 -4.5 84.5t-21 95.5t-49 90.5t-88.5 68.5q-26 11 -50 16.5t-52.5 8t-63.5 3t-83 0.5h-147v324z" />
    <glyph glyph-name="four.alt1" horiz-adv-x="1654" 
d="M1131 1626l-461 -1061q-8 -14 -24 -47t-35 -69.5t-38.5 -69.5t-33.5 -47q11 1 17.5 2t12 1.5t13 0.5h19.5h327q14 0 26.5 -0.5t22.5 -1.5q11 -1 21 -2v53q0 62 4 153.5t17 199.5l28 344l307 70v-558v-172q-2 -25 -3.5 -42t-2.5 -28q-2 -12 -2 -20q16 1 33 2
q14 1 30.5 1.5t30.5 0.5h123v-336h-131q-22 0 -38.5 0.5t-27.5 1.5q-13 1 -24 2q3 -12 6 -27q2 -13 4 -32t2 -43v-438l-368 -45v515q0 11 0.5 24t1.5 24l2 26q-10 -2 -24 -4q-12 -2 -29.5 -3t-40.5 -1h-774v266l608 1360h401z" />
    <glyph glyph-name="five.alt1" horiz-adv-x="1598" 
d="M1372 1626l-57 -332h-598l-60 -521q23 4 43 6.5t38 4t36.5 1.5h38.5q135 0 246 -49.5t190.5 -133.5t123 -196t43.5 -236q0 -163 -68.5 -299t-191 -234.5t-292 -153.5t-370.5 -55q-35 0 -61 1t-49.5 3.5t-49.5 6.5t-61 10l-77 265q72 -16 136.5 -22.5t129.5 -6.5
q117 0 214 33t166.5 91.5t108.5 139.5t39 176q0 69 -24 133.5t-67 114t-103.5 79.5t-132.5 30q-44 0 -89.5 -5t-96.5 -15t-110 -25.5t-130 -36.5l140 1226h995z" />
    <glyph glyph-name="six.alt1" horiz-adv-x="1633" 
d="M106 769q0 202 48.5 373t141.5 312t229 253.5t310 198.5q50 25 107 48t111.5 41.5t101.5 31t77 16.5l61 -202q-115 -37 -222 -88.5t-198.5 -120.5t-165 -158t-122.5 -200q13 4 38.5 13t62 17.5t82.5 15t101 6.5q117 -1 211 -28t167 -75t125.5 -113.5t87 -144t50.5 -166
t16 -179.5q0 -158 -54 -281.5t-150 -209.5t-226.5 -131t-283.5 -45q-164 0 -294.5 59t-222 166t-140.5 257.5t-49 333.5zM824 1018q-65 0 -125 -12t-106 -30.5t-73.5 -41t-27.5 -43.5q-1 -11 -1.5 -39t-1 -61t-0.5 -65.5v-54.5q0 -67 15.5 -138.5t52.5 -130t99.5 -96
t155.5 -37.5q75 0 136 13.5t104.5 49.5t67.5 99t24 162q0 72 -18 147.5t-56.5 137t-99.5 101t-146 39.5z" />
    <glyph glyph-name="seven.alt1" horiz-adv-x="1633" 
d="M258 1627h1217l-66 -340q-29 -44 -75.5 -124t-103.5 -185.5t-118.5 -231t-120 -262t-109 -277.5t-83.5 -277q-6 -18 -12.5 -43.5t-16.5 -70t-23.5 -114t-33.5 -177.5l-430 -111q28 150 63 295.5t80.5 291.5t102.5 295.5t129.5 308t162 327.5t199.5 355q-21 -9 -52 -10.5
t-62 -1.5h-738z" />
    <glyph glyph-name="eight.alt1" horiz-adv-x="1640" 
d="M1151 1089q42 -12 85.5 -31.5t86 -44t81.5 -53t71 -59.5q30 -28 54 -67t40 -84t24.5 -93.5t8.5 -96.5q0 -98 -34 -187t-95.5 -162t-148 -127.5t-191.5 -83.5q-86 -24 -160 -31.5t-154 -7.5q-144 0 -254 28.5t-205 87.5q-130 81 -196 195t-66 260q0 81 25 161.5
t70.5 150.5t108.5 123.5t140 80.5q-24 8 -51 24t-53.5 37.5t-51 47t-44.5 51.5q-41 62 -63.5 140t-22.5 156q0 120 50.5 221.5t142.5 175.5t221 115.5t286 41.5q147 0 270.5 -40t213 -110.5t139 -165.5t49.5 -206q0 -75 -26.5 -145.5t-76 -130t-119 -104t-155.5 -67.5z
M856 1249q37 18 78.5 45.5t77 64t59 83t23.5 103.5q0 51 -17.5 92.5t-51.5 71.5t-84 46.5t-114 16.5q-60 0 -109.5 -18.5t-85 -50t-55.5 -75t-20 -92.5q0 -68 41 -126.5t139 -107.5q17 -9 30 -15.5t26.5 -12t28 -11.5t34.5 -14zM721 893q-46 -26 -81.5 -63t-59.5 -80.5
t-36 -92t-12 -97.5q0 -69 23.5 -126.5t67 -99t105 -64.5t136.5 -23q66 0 121 20t94.5 55.5t61.5 83.5t22 105q0 72 -27.5 134.5t-82.5 99.5q-59 37 -143 75.5t-189 72.5z" />
    <glyph glyph-name="nine.alt1" horiz-adv-x="1633" 
d="M1520 815q1 -170 -18.5 -311.5t-60.5 -259.5t-103.5 -216t-149 -182t-197.5 -156.5t-247 -138.5q-31 -15 -78 -33t-96.5 -34t-95.5 -28.5t-76 -16.5l-88 223q46 16 109.5 42.5t135 63t146 83.5t142 104.5t122.5 125.5t89 146q-33 -23 -70 -36t-75 -20t-75.5 -9t-72.5 -2
q-103 0 -192 26.5t-162.5 74.5t-130.5 113.5t-96 144t-59.5 166t-20.5 179.5q0 105 25 202t70.5 181.5t110.5 154t144.5 119t172.5 76.5t195 27q109 0 203.5 -30.5t172 -85.5t138 -130.5t102.5 -165.5t63.5 -191t22.5 -206zM806 468q66 0 122 9.5t98.5 26.5t69 40t34.5 51
q3 21 4.5 47t2 52.5t0.5 52v47.5q0 45 -6.5 100.5t-21 112.5t-38.5 111t-59.5 96.5t-83.5 68t-110 25.5q-75 0 -136.5 -31t-106 -88t-69 -137.5t-24.5 -179.5q0 -72 18.5 -144t58 -130t100.5 -94t147 -36z" />
    <glyph glyph-name="maiekthai.alt1" 
d="M-210 2458h-324v406l324 55v-461z" />
    <glyph glyph-name="maithothai.alt1" 
d="M-712 3042q21 -5 58 -21t73.5 -44t63 -68t26.5 -92q0 -19 -3.5 -40t-13.5 -42q-5 -11 -9.5 -17.5t-7.5 -10.5q-4 -4 -7 -6q55 0 119 16t126 43t117.5 62.5t94.5 74.5l195 -203q-157 -116 -320 -173.5t-344 -63.5q-56 0 -113.5 2t-128.5 15l-83 216q12 4 28 8.5t30 12.5
t23.5 21.5t9.5 35.5q0 23 -12.5 40t-30 29t-36 19t-31.5 10z" />
    <glyph glyph-name="maitrithai.alt1" 
d="M-621 2900q24 30 50.5 47t52.5 25.5t50 11.5t45 4q52 3 92 -11t67.5 -38.5t42 -58t14.5 -70.5q0 -31 -5 -60t-26 -56q17 6 43 18.5t53.5 29.5t52 38t38.5 43l118 -172q-31 -38 -86 -73.5t-126.5 -63.5t-154.5 -45.5t-170 -18.5l-38 191q27 6 42.5 27.5t13.5 43.5
q-4 31 -17.5 41.5t-38.5 10.5q-14 0 -30.5 -7t-33 -18t-32 -25t-27.5 -28q-12 28 -44 49t-69 21q-28 0 -46 -11.5t-18 -38.5q0 -30 31 -49t76 -28l-56 -179q-63 1 -120.5 19t-101.5 52t-70.5 82.5t-26.5 111.5q0 57 19 107t54.5 86.5t86.5 57.5t114 19q39 -1 68 -9t50.5 -20
t36.5 -27t26 -29z" />
    <glyph glyph-name="maichattawathai.alt1" 
d="M-735 2865h235v149l289 64v-213h239v-232h-239v-180h-289v180h-235v232z" />
    <glyph glyph-name="maiekupperleftthai.alt2" 
d="M-836 2454h-324v406l324 55v-461z" />
    <glyph glyph-name="maithoupperleftthai.alt2" 
d="M-1351 3042q14 -3 36 -11t47 -21.5t49.5 -32.5t44.5 -43t32.5 -53.5t12.5 -64.5q0 -19 -3.5 -40t-13.5 -42q-5 -11 -9.5 -17.5t-7.5 -10.5l-7 -7q55 0 119.5 16.5t127 43.5t118.5 62.5t95 74.5l196 -204q-158 -117 -322 -174.5t-346 -63.5q-57 0 -114.5 2t-129.5 15
l-83 218q12 3 28 7.5t30.5 13t24 22t9.5 35.5q0 23 -12.5 40.5t-30 29.5t-36.5 18.5t-32 9.5z" />
    <glyph glyph-name="maitriupperleftthai.alt2" 
d="M-1176 2897q50 42 103 64t94 24q49 3 88 -9.5t67.5 -36.5t44.5 -58t18 -74q2 -31 -4 -60.5t-27 -56.5q16 6 42.5 18.5t54 30t52.5 38t39 42.5l117 -172q-31 -38 -86 -73.5t-126.5 -63t-155 -45.5t-170.5 -19l-38 191q27 6 42.5 28t13.5 44q-4 30 -17.5 41t-38.5 11
q-14 0 -30.5 -7t-33 -18.5t-32 -25.5t-27.5 -27q-13 27 -44.5 48t-68.5 21q-28 0 -46.5 -11t-18.5 -38q0 -31 31.5 -50t75.5 -28l-55 -179q-63 1 -121 19.5t-102 52t-70.5 82.5t-26.5 112q0 57 19 107t55 86.5t86.5 57.5t113.5 19q39 -1 68 -10.5t50.5 -22.5t36.5 -27
t27 -25z" />
    <glyph glyph-name="maichattawaupperleftthai.alt2" 
d="M-1358 2865h235v149l289 64v-213h239v-232h-239v-180h-289v180h-235v232z" />
    <glyph glyph-name="maiekthai.alt3" 
d="M-210 2628h-324v406l324 55v-461z" />
    <glyph glyph-name="maithothai.alt3" 
d="M-672 3192q21 -5 58 -21t73.5 -44t63 -68t26.5 -92q0 -19 -3.5 -40t-13.5 -42q-5 -11 -9.5 -17.5t-7.5 -10.5q-4 -4 -7 -6q55 0 119 16t126 43t117.5 62.5t94.5 74.5l195 -203q-157 -116 -320 -173.5t-344 -63.5q-56 0 -113.5 2t-128.5 15l-83 216q12 4 28 8.5t30 12.5
t23.5 21.5t9.5 35.5q0 23 -12.5 40t-30 29t-36 19t-31.5 10z" />
    <glyph glyph-name="maitrithai.alt3" 
d="M-431 3050q24 30 50.5 47t52.5 25.5t50 11.5t45 4q52 3 92 -11t67.5 -38.5t42 -58t14.5 -70.5q0 -31 -5 -60t-26 -56q17 6 43 18.5t53.5 29.5t52 38t38.5 43l118 -172q-31 -38 -86 -73.5t-126.5 -63.5t-154.5 -45.5t-170 -18.5l-38 191q27 6 42.5 27.5t13.5 43.5
q-4 31 -17.5 41.5t-38.5 10.5q-14 0 -30.5 -7t-33 -18t-32 -25t-27.5 -28q-12 28 -44 49t-69 21q-28 0 -46 -11.5t-18 -38.5q0 -30 31 -49t76 -28l-56 -179q-63 1 -120.5 19t-101.5 52t-70.5 82.5t-26.5 111.5q0 57 19 107t54.5 86.5t86.5 57.5t114 19q39 -1 68 -9t50.5 -20
t36.5 -27t26 -29z" />
    <glyph glyph-name="maichattawathai.alt3" 
d="M-735 3035h235v149l289 64v-213h239v-232h-239v-180h-289v180h-235v232z" />
    <glyph glyph-name="maiekupperleftthai.alt4" 
d="M-956 2624h-324v406l324 55v-461z" />
    <glyph glyph-name="maithoupperleftthai.alt4" 
d="M-1261 3202q14 -3 36 -11t47 -21.5t49.5 -32.5t44.5 -43t32.5 -53.5t12.5 -64.5q0 -19 -3.5 -40t-13.5 -42q-5 -11 -9.5 -17.5t-7.5 -10.5l-7 -7q55 0 119.5 16.5t127 43.5t118.5 62.5t95 74.5l196 -204q-158 -117 -322 -174.5t-346 -63.5q-57 0 -114.5 2t-129.5 15
l-83 218q12 3 28 7.5t30.5 13t24 22t9.5 35.5q0 23 -12.5 40.5t-30 29.5t-36.5 18.5t-32 9.5z" />
    <glyph glyph-name="maitriupperleftthai.alt4" 
d="M-1126 3057q50 42 103 64t94 24q49 3 88 -9.5t67.5 -36.5t44.5 -58t18 -74q2 -31 -4 -60.5t-27 -56.5q16 6 42.5 18.5t54 30t52.5 38t39 42.5l117 -172q-31 -38 -86 -73.5t-126.5 -63t-155 -45.5t-170.5 -19l-38 191q27 6 42.5 28t13.5 44q-4 30 -17.5 41t-38.5 11
q-14 0 -30.5 -7t-33 -18.5t-32 -25.5t-27.5 -27q-13 27 -44.5 48t-68.5 21q-28 0 -46.5 -11t-18.5 -38q0 -31 31.5 -50t75.5 -28l-55 -179q-63 1 -121 19.5t-102 52t-70.5 82.5t-26.5 112q0 57 19 107t55 86.5t86.5 57.5t113.5 19q39 -1 68 -10.5t50.5 -22.5t36.5 -27
t27 -25z" />
    <glyph glyph-name="maichattawaupperleftthai.alt4" 
d="M-1498 3025h235v149l289 64v-213h239v-232h-239v-180h-289v180h-235v232z" />
    <glyph glyph-name="saraithai.alt5" 
d="M-210 1888h-1769l145 282l1624 -1v-281z" />
    <glyph glyph-name="saraiithai.alt5" 
d="M-210 1889h-1769l147 279h1276l-1 206l347 68v-553z" />
    <glyph glyph-name="sarauethai.alt5" 
d="M-800 2167q-2 7 -2.5 14.5t-1.5 14.5q-1 8 -1 15q0 64 25 117t67 91t97 59.5t114 21.5q64 0 121 -23.5t99.5 -65t67 -96.5t24.5 -118q0 -62 -24.5 -117.5t-67 -98.5t-99.5 -68t-121 -25h-1477l151 279h1028zM-616 2197q0 -23 9 -43t25 -34.5t36.5 -22.5t43.5 -8
q50 0 82.5 30.5t32.5 77.5q0 21 -8.5 40.5t-24 34.5t-36.5 24t-46 9q-23 0 -43.5 -9t-36.5 -24t-25 -34.5t-9 -40.5z" />
    <glyph glyph-name="saraueethai.alt5" 
d="M-701 2166h159v212l332 62v-552h-1769l151 278h795v212l332 62v-274z" />
    <glyph glyph-name="saraithai.alt6" 
d="M-835 1885h-1157l162 279h995v-279z" />
    <glyph glyph-name="saraiithai.alt6" 
d="M-835 1886l-1157 -1l158 279h653l-1 206l347 68v-552z" />
    <glyph glyph-name="sarauethai.alt6" 
d="M-1372 2163q0 71 22.5 127t61.5 95t91 60t110 21q60 0 113 -22t92 -60.5t62 -90.5t23 -112q0 -59 -23 -112.5t-62 -94t-92 -65t-113 -24.5h-16h-889l157 278h463zM-1179 2181q0 -41 27.5 -67t64.5 -26q41 0 67 26t26 67q0 37 -26 65t-67 28q-18 0 -35 -7.5t-29.5 -20.5
t-20 -30t-7.5 -35z" />
    <glyph glyph-name="saraueethai.alt6" 
d="M-1243 2168h147v226l260 48v-553h-1156l164 279h327v226l258 48v-274z" />
    <glyph glyph-name="maiekthai.alt6" 
d="M-836 2614h-324v406l324 55v-461z" />
    <glyph glyph-name="maithothai.alt6" 
d="M-1151 3202q14 -3 36 -11t47 -21.5t49.5 -32.5t44.5 -43t32.5 -53.5t12.5 -64.5q0 -19 -3.5 -40t-13.5 -42q-5 -11 -9.5 -17.5t-7.5 -10.5l-7 -7q55 0 119.5 16.5t127 43.5t118.5 62.5t95 74.5l196 -204q-158 -117 -322 -174.5t-346 -63.5q-57 0 -114.5 2t-129.5 15
l-83 218q12 3 28 7.5t30.5 13t24 22t9.5 35.5q0 23 -12.5 40.5t-30 29.5t-36.5 18.5t-32 9.5z" />
    <glyph glyph-name="maitrithai.alt6" 
d="M-1056 3067q50 42 103 64t94 24q49 3 88 -9.5t67.5 -36.5t44.5 -58t18 -74q2 -31 -4 -60.5t-27 -56.5q16 6 42.5 18.5t54 30t52.5 38t39 42.5l117 -172q-31 -38 -86 -73.5t-126.5 -63t-155 -45.5t-170.5 -19l-38 191q27 6 42.5 28t13.5 44q-4 30 -17.5 41t-38.5 11
q-14 0 -30.5 -7t-33 -18.5t-32 -25.5t-27.5 -27q-13 27 -44.5 48t-68.5 21q-28 0 -46.5 -11t-18.5 -38q0 -31 31.5 -50t75.5 -28l-55 -179q-63 1 -121 19.5t-102 52t-70.5 82.5t-26.5 112q0 57 19 107t55 86.5t86.5 57.5t113.5 19q39 -1 68 -10.5t50.5 -22.5t36.5 -27
t27 -25z" />
    <glyph glyph-name="maichattawathai.alt6" 
d="M-1358 3025h235v149l289 64v-213h239v-232h-239v-180h-289v180h-235v232z" />
    </font>
</defs>
</svg>
